  0
SECTION
  2
HEADER
  9
$ACADVER
  1
AC1015
  9
$ACADMAINTVER
 70
    20
  9
$DWGCODEPAGE
  3
ANSI_932
  9
$INSBASE
 10
0.0
 20
0.0
 30
0.0
  9
$EXTMIN
 10
3025.281495987758
 20
-28.99914768017243
 30
-0.0000000000000058
  9
$EXTMAX
 10
5815.589652640359
 20
1944.450623457853
 30
0.0000000000000104
  9
$LIMMIN
 10
0.0
 20
0.0
  9
$LIMMAX
 10
297.0
 20
209.0
  9
$ORTHOMODE
 70
     1
  9
$REGENMODE
 70
     1
  9
$FILLMODE
 70
     1
  9
$QTEXTMODE
 70
     0
  9
$MIRRTEXT
 70
     1
  9
$LTSCALE
 40
1.0
  9
$ATTMODE
 70
     1
  9
$TEXTSIZE
 40
2.5
  9
$TRACEWID
 40
1.0
  9
$TEXTSTYLE
  7
Standard
  9
$CLAYER
  8
本体
  9
$CELTYPE
  6
ByLayer
  9
$CECOLOR
 62
   256
  9
$CELTSCALE
 40
3.0
  9
$DISPSILH
 70
     0
  9
$DIMSCALE
 40
10.0
  9
$DIMASZ
 40
1.5
  9
$DIMEXO
 40
2.0
  9
$DIMDLI
 40
3.75
  9
$DIMRND
 40
0.0
  9
$DIMDLE
 40
0.0
  9
$DIMEXE
 40
1.5
  9
$DIMTP
 40
0.0
  9
$DIMTM
 40
0.0
  9
$DIMTXT
 40
3.0
  9
$DIMCEN
 40
2.5
  9
$DIMTSZ
 40
0.0
  9
$DIMTOL
 70
     0
  9
$DIMLIM
 70
     0
  9
$DIMTIH
 70
     0
  9
$DIMTOH
 70
     0
  9
$DIMSE1
 70
     0
  9
$DIMSE2
 70
     0
  9
$DIMTAD
 70
     1
  9
$DIMZIN
 70
     8
  9
$DIMBLK
  1
Open30
  9
$DIMASO
 70
     1
  9
$DIMSHO
 70
     1
  9
$DIMPOST
  1

  9
$DIMAPOST
  1

  9
$DIMALT
 70
     0
  9
$DIMALTD
 70
     3
  9
$DIMALTF
 40
0.03937007874016
  9
$DIMLFAC
 40
1.0
  9
$DIMTOFL
 70
     1
  9
$DIMTVP
 40
0.0
  9
$DIMTIX
 70
     0
  9
$DIMSOXD
 70
     0
  9
$DIMSAH
 70
     0
  9
$DIMBLK1
  1

  9
$DIMBLK2
  1

  9
$DIMSTYLE
  2
ISO-25
  9
$DIMCLRD
 70
     0
  9
$DIMCLRE
 70
     0
  9
$DIMCLRT
 70
     0
  9
$DIMTFAC
 40
1.0
  9
$DIMGAP
 40
0.5
  9
$DIMJUST
 70
     0
  9
$DIMSD1
 70
     0
  9
$DIMSD2
 70
     0
  9
$DIMTOLJ
 70
     0
  9
$DIMTZIN
 70
     8
  9
$DIMALTZ
 70
     0
  9
$DIMALTTZ
 70
     0
  9
$DIMUPT
 70
     0
  9
$DIMDEC
 70
     2
  9
$DIMTDEC
 70
     2
  9
$DIMALTU
 70
     2
  9
$DIMALTTD
 70
     3
  9
$DIMTXSTY
  7
Standard
  9
$DIMAUNIT
 70
     0
  9
$DIMADEC
 70
     0
  9
$DIMALTRND
 40
0.0
  9
$DIMAZIN
 70
     0
  9
$DIMDSEP
 70
    46
  9
$DIMATFIT
 70
     0
  9
$DIMFRAC
 70
     0
  9
$DIMLDRBLK
  1
Open30
  9
$DIMLUNIT
 70
     2
  9
$DIMLWD
 70
    -2
  9
$DIMLWE
 70
    -2
  9
$DIMTMOVE
 70
     0
  9
$LUNITS
 70
     2
  9
$LUPREC
 70
     4
  9
$SKETCHINC
 40
1.0
  9
$FILLETRAD
 40
9.9
  9
$AUNITS
 70
     0
  9
$AUPREC
 70
     0
  9
$MENU
  1
.
  9
$ELEVATION
 40
0.0
  9
$PELEVATION
 40
0.0
  9
$THICKNESS
 40
0.0
  9
$LIMCHECK
 70
     0
  9
$CHAMFERA
 40
10.0
  9
$CHAMFERB
 40
10.0
  9
$CHAMFERC
 40
20.0
  9
$CHAMFERD
 40
0.0
  9
$SKPOLY
 70
     0
  9
$TDCREATE
 40
2453510.558637211
  9
$TDUCREATE
 40
2453510.183637211
  9
$TDUPDATE
 40
2457509.726286088
  9
$TDUUPDATE
 40
2457509.351286088
  9
$TDINDWG
 40
0.1672706366
  9
$TDUSRTIMER
 40
0.1672706134
  9
$USRTIMER
 70
     1
  9
$ANGBASE
 50
0.0
  9
$ANGDIR
 70
     0
  9
$PDMODE
 70
     0
  9
$PDSIZE
 40
0.0
  9
$PLINEWID
 40
0.0
  9
$SPLFRAME
 70
     0
  9
$SPLINETYPE
 70
     6
  9
$SPLINESEGS
 70
     8
  9
$HANDSEED
  5
6482
  9
$SURFTAB1
 70
     6
  9
$SURFTAB2
 70
     6
  9
$SURFTYPE
 70
     6
  9
$SURFU
 70
     6
  9
$SURFV
 70
     6
  9
$UCSBASE
  2

  9
$UCSNAME
  2

  9
$UCSORG
 10
0.0
 20
0.0
 30
0.0
  9
$UCSXDIR
 10
1.0
 20
0.0
 30
0.0
  9
$UCSYDIR
 10
0.0
 20
1.0
 30
0.0
  9
$UCSORTHOREF
  2

  9
$UCSORTHOVIEW
 70
     0
  9
$UCSORGTOP
 10
0.0
 20
0.0
 30
0.0
  9
$UCSORGBOTTOM
 10
0.0
 20
0.0
 30
0.0
  9
$UCSORGLEFT
 10
0.0
 20
0.0
 30
0.0
  9
$UCSORGRIGHT
 10
0.0
 20
0.0
 30
0.0
  9
$UCSORGFRONT
 10
0.0
 20
0.0
 30
0.0
  9
$UCSORGBACK
 10
0.0
 20
0.0
 30
0.0
  9
$PUCSBASE
  2

  9
$PUCSNAME
  2

  9
$PUCSORG
 10
0.0
 20
0.0
 30
0.0
  9
$PUCSXDIR
 10
1.0
 20
0.0
 30
0.0
  9
$PUCSYDIR
 10
0.0
 20
1.0
 30
0.0
  9
$PUCSORTHOREF
  2

  9
$PUCSORTHOVIEW
 70
     0
  9
$PUCSORGTOP
 10
0.0
 20
0.0
 30
0.0
  9
$PUCSORGBOTTOM
 10
0.0
 20
0.0
 30
0.0
  9
$PUCSORGLEFT
 10
0.0
 20
0.0
 30
0.0
  9
$PUCSORGRIGHT
 10
0.0
 20
0.0
 30
0.0
  9
$PUCSORGFRONT
 10
0.0
 20
0.0
 30
0.0
  9
$PUCSORGBACK
 10
0.0
 20
0.0
 30
0.0
  9
$USERI1
 70
     0
  9
$USERI2
 70
     0
  9
$USERI3
 70
     0
  9
$USERI4
 70
     0
  9
$USERI5
 70
     0
  9
$USERR1
 40
0.0
  9
$USERR2
 40
0.0
  9
$USERR3
 40
0.0
  9
$USERR4
 40
0.0
  9
$USERR5
 40
0.0
  9
$WORLDVIEW
 70
     1
  9
$SHADEDGE
 70
     3
  9
$SHADEDIF
 70
    70
  9
$TILEMODE
 70
     1
  9
$MAXACTVP
 70
    48
  9
$PINSBASE
 10
0.0
 20
0.0
 30
0.0
  9
$PLIMCHECK
 70
     0
  9
$PEXTMIN
 10
0.0
 20
0.0
 30
0.0
  9
$PEXTMAX
 10
0.0
 20
0.0
 30
0.0
  9
$PLIMMIN
 10
0.0
 20
0.0
  9
$PLIMMAX
 10
12.0
 20
9.0
  9
$UNITMODE
 70
     0
  9
$VISRETAIN
 70
     1
  9
$PLINEGEN
 70
     0
  9
$PSLTSCALE
 70
     1
  9
$TREEDEPTH
 70
  3020
  9
$CMLSTYLE
  2
Standard
  9
$CMLJUST
 70
     0
  9
$CMLSCALE
 40
20.0
  9
$PROXYGRAPHICS
 70
     1
  9
$MEASUREMENT
 70
     1
  9
$CELWEIGHT
370
    -1
  9
$ENDCAPS
280
     0
  9
$JOINSTYLE
280
     0
  9
$LWDISPLAY
290
     0
  9
$INSUNITS
 70
     4
  9
$HYPERLINKBASE
  1

  9
$STYLESHEET
  1
MONOCHROME.CTB
  9
$XEDIT
290
     1
  9
$CEPSNTYPE
380
     0
  9
$PSTYLEMODE
290
     1
  9
$FINGERPRINTGUID
  2

  9
$VERSIONGUID
  2
{FEC5E8CE-3892-46E1-A1C6-B2EAAB65B120}
  9
$EXTNAMES
290
     1
  9
$PSVPSCALE
 40
0.0
  9
$OLESTARTUP
290
     0
  0
ENDSEC
  0
SECTION
  2
CLASSES
  0
CLASS
  1
ACDBDICTIONARYWDFLT
  2
AcDbDictionaryWithDefault
  3
ObjectDBX Classes
 90
        0
280
     0
281
     0
  0
CLASS
  1
ACDBPLACEHOLDER
  2
AcDbPlaceHolder
  3
ObjectDBX Classes
 90
        0
280
     0
281
     0
  0
CLASS
  1
LAYOUT
  2
AcDbLayout
  3
ObjectDBX Classes
 90
        0
280
     0
281
     0
  0
CLASS
  1
DICTIONARYVAR
  2
AcDbDictionaryVar
  3
ObjectDBX Classes
 90
        0
280
     0
281
     0
  0
CLASS
  1
MATERIAL
  2
AcDbMaterial
  3
ObjectDBX Classes
 90
     1153
280
     0
281
     0
  0
CLASS
  1
VISUALSTYLE
  2
AcDbVisualStyle
  3
ObjectDBX Classes
 90
     4095
280
     0
281
     0
  0
CLASS
  1
TABLESTYLE
  2
AcDbTableStyle
  3
ObjectDBX Classes
 90
     4095
280
     0
281
     0
  0
CLASS
  1
SCALE
  2
AcDbScale
  3
ObjectDBX Classes
 90
     1153
280
     0
281
     0
  0
CLASS
  1
MLEADERSTYLE
  2
AcDbMLeaderStyle
  3
ACDB_MLEADERSTYLE_CLASS
 90
     4095
280
     0
281
     0
  0
CLASS
  1
ACDBSECTIONVIEWSTYLE
  2
AcDbSectionViewStyle
  3
ObjectDBX Classes
 90
     1025
280
     0
281
     0
  0
CLASS
  1
ACDBDETAILVIEWSTYLE
  2
AcDbDetailViewStyle
  3
ObjectDBX Classes
 90
     1025
280
     0
281
     0
  0
CLASS
  1
CELLSTYLEMAP
  2
AcDbCellStyleMap
  3
ObjectDBX Classes
 90
     1152
280
     0
281
     0
  0
CLASS
  1
SORTENTSTABLE
  2
AcDbSortentsTable
  3
ObjectDBX Classes
 90
        0
280
     0
281
     0
  0
CLASS
  1
ACARRAYJIGENTITY
  2
AcArrayJigEntity
  3
ACAD_ARRAY
 90
      129
280
     0
281
     1
  0
CLASS
  1
ACDBASSOCNETWORK
  2
AcDbAssocNetwork
  3
ObjectDBX Classes
 90
     1025
280
     0
281
     0
  0
CLASS
  1
ACDBASSOCACTION
  2
AcDbAssocAction
  3
ObjectDBX Classes
 90
     1025
280
     0
281
     0
  0
CLASS
  1
ACDBASSOCARRAYACTIONBODY
  2
AcDbAssocArrayActionBody
  3
ObjectDBX Classes
 90
     1025
280
     0
281
     0
  0
CLASS
  1
ACDBASSOCVERTEXACTIONPARAM
  2
AcDbAssocVertexActionParam
  3
ObjectDBX Classes
 90
     1025
280
     0
281
     0
  0
CLASS
  1
ACDBASSOCDEPENDENCY
  2
AcDbAssocDependency
  3
ObjectDBX Classes
 90
     1025
280
     0
281
     0
  0
CLASS
  1
ACDBASSOCARRAYRECTANGULARPARAMETERS
  2
AcDbAssocArrayRectangularParameters
  3
ObjectDBX Classes
 90
    33793
280
     0
281
     0
  0
ENDSEC
  0
SECTION
  2
TABLES
  0
TABLE
  2
VPORT
  5
4CC
102
{ACAD_XDICTIONARY
360
4D27
102
}
330
0
100
AcDbSymbolTable
 70
     1
  0
VPORT
  5
4CB3
330
4CC
100
AcDbSymbolTableRecord
100
AcDbViewportTableRecord
  2
*Active
 70
     0
 10
0.0
 20
0.0
 11
1.0
 21
1.0
 12
4420.435574314058
 22
957.7257378888402
 13
0.0
 23
0.0
 14
10.0
 24
10.0
 15
10.0
 25
10.0
 16
0.0
 26
0.0
 36
1.0
 17
0.0
 27
0.0
 37
0.0
 40
1990.511296536913
 41
1.753246753246753
 42
50.0
 43
0.0
 44
0.0
 50
0.0
 51
0.0
 71
     0
 72
   100
 73
     1
 74
     3
 75
     0
 76
     0
 77
     0
 78
     0
281
     0
 65
     1
110
0.0
120
0.0
130
0.0
111
1.0
121
0.0
131
0.0
112
0.0
122
1.0
132
0.0
 79
     0
146
0.0
1001
ACAD_NAV_VCDISPLAY
1070
     3
  0
ENDTAB
  0
TABLE
  2
LTYPE
  5
4C7
330
0
100
AcDbSymbolTable
 70
     5
  0
LTYPE
  5
4C8
330
4C7
100
AcDbSymbolTableRecord
100
AcDbLinetypeTableRecord
  2
ByBlock
 70
     0
  3

 72
    65
 73
     0
 40
0.0
  0
LTYPE
  5
4C9
330
4C7
100
AcDbSymbolTableRecord
100
AcDbLinetypeTableRecord
  2
ByLayer
 70
     0
  3

 72
    65
 73
     0
 40
0.0
  0
LTYPE
  5
8
330
4C7
100
AcDbSymbolTableRecord
100
AcDbLinetypeTableRecord
  2
Continuous
 70
     0
  3
Solid line
 72
    65
 73
     0
 40
0.0
  0
LTYPE
  5
129
330
4C7
100
AcDbSymbolTableRecord
100
AcDbLinetypeTableRecord
  2
HIDDEN
 70
     0
  3
Hidden __ __ __ __ __ __ __ __ __ __ __ __ __ _
 72
    65
 73
     2
 40
9.524999999999996
 49
6.349999999999998
 74
     0
 49
-3.174999999999998
 74
     0
  0
LTYPE
  5
27C
330
4C7
100
AcDbSymbolTableRecord
100
AcDbLinetypeTableRecord
  2
CENTER
 70
     0
  3
------ - ------ - ----
 72
    65
 73
     4
 40
10.0
 49
6.25
 74
     0
 49
-1.25
 74
     0
 49
1.25
 74
     0
 49
-1.25
 74
     0
  0
ENDTAB
  0
TABLE
  2
LAYER
  5
4C4
102
{ACAD_XDICTIONARY
360
4F9B
102
}
330
0
100
AcDbSymbolTable
 70
    11
  0
LAYER
  5
64
102
{ACAD_XDICTIONARY
360
4D0A
102
}
330
4C4
100
AcDbSymbolTableRecord
100
AcDbLayerTableRecord
  2
0
 70
     0
 62
     7
  6
Continuous
370
    -3
390
5
  0
LAYER
  5
6A
102
{ACAD_XDICTIONARY
360
4D0C
102
}
330
4C4
100
AcDbSymbolTableRecord
100
AcDbLayerTableRecord
  2
本体
 70
     0
 62
     7
  6
Continuous
370
    13
390
5
  0
LAYER
  5
4
102
{ACAD_XDICTIONARY
360
4D0E
102
}
330
4C4
100
AcDbSymbolTableRecord
100
AcDbLayerTableRecord
  2
寸法線
 70
     0
 62
     2
  6
Continuous
370
     9
390
5
  0
LAYER
  5
67
102
{ACAD_XDICTIONARY
360
4D12
102
}
330
4C4
100
AcDbSymbolTableRecord
100
AcDbLayerTableRecord
  2
エンボス
 70
     0
 62
     4
  6
Continuous
370
     5
390
5
  0
LAYER
  5
11
102
{ACAD_XDICTIONARY
360
4D14
102
}
330
4C4
100
AcDbSymbolTableRecord
100
AcDbLayerTableRecord
  2
外枠
 70
     0
 62
     7
  6
Continuous
370
    -3
390
5
  0
LAYER
  5
F4
330
4C4
100
AcDbSymbolTableRecord
100
AcDbLayerTableRecord
  2
Defpoints
 70
     0
 62
     7
  6
Continuous
290
     0
370
    -3
390
5
  0
LAYER
  5
E13
102
{ACAD_XDICTIONARY
360
4D18
102
}
330
4C4
100
AcDbSymbolTableRecord
100
AcDbLayerTableRecord
  2
嵩上断面
 70
     0
 62
   112
  6
Continuous
370
    13
390
5
  0
LAYER
  5
E14
102
{ACAD_XDICTIONARY
360
4D1A
102
}
330
4C4
100
AcDbSymbolTableRecord
100
AcDbLayerTableRecord
  2
嵩上平面
 70
     0
 62
   112
  6
HIDDEN
370
    13
390
5
  0
ENDTAB
  0
TABLE
  2
STYLE
  5
4C5
330
0
100
AcDbSymbolTable
 70
     4
  0
STYLE
  5
9
330
4C5
100
AcDbSymbolTableRecord
100
AcDbTextStyleTableRecord
  2
Standard
 70
     0
 40
0.0
 41
1.0
 50
0.0
 71
     0
 42
2.5
  3

  4

1001
ACAD
1000
MS Gothic
1071
    32817
  0
ENDTAB
  0
TABLE
  2
VIEW
  5
4CA
330
0
100
AcDbSymbolTable
 70
     0
  0
ENDTAB
  0
TABLE
  2
UCS
  5
4CB
330
0
100
AcDbSymbolTable
 70
     0
  0
ENDTAB
  0
TABLE
  2
APPID
  5
4CE
330
0
100
AcDbSymbolTable
 70
     4
  0
APPID
  5
A
330
4CE
100
AcDbSymbolTableRecord
100
AcDbRegAppTableRecord
  2
ACAD
 70
     0
  0
APPID
  5
4D1C
330
4CE
100
AcDbSymbolTableRecord
100
AcDbRegAppTableRecord
  2
ACAD_NAV_VCDISPLAY
 70
     0
  0
APPID
  5
4D5D
330
4CE
100
AcDbSymbolTableRecord
100
AcDbRegAppTableRecord
  2
ACAD_MLEADERVER
 70
     0
  0
APPID
  5
630E
330
4CE
100
AcDbSymbolTableRecord
100
AcDbRegAppTableRecord
  2
ACAD_EXEMPT_FROM_CAD_STANDARDS
 70
     0
  0
ENDTAB
  0
TABLE
  2
DIMSTYLE
  5
4CF
330
0
100
AcDbSymbolTable
 70
     2
100
AcDbDimStyleTable
 71
     1
340
E6
  0
DIMSTYLE
105
E6
102
{ACAD_REACTORS
330
1597
330
159F
330
18A6
330
1CA3
330
1CA4
330
1CA5
330
1CCE
330
1CD4
330
1CF5
102
}
330
4CF
100
AcDbSymbolTableRecord
100
AcDbDimStyleTableRecord
  2
ISO-25
 70
     0
 40
10.0
 41
1.5
 42
2.0
 43
3.75
 44
1.5
 73
     0
 74
     0
 77
     1
 78
     8
140
3.0
141
2.5
143
0.03937007874016
147
0.5
171
     3
172
     1
271
     2
272
     2
274
     3
283
     0
284
     8
289
     0
340
9
341
DF
342
DF
  0
DIMSTYLE
105
D55
330
4CF
100
AcDbSymbolTableRecord
100
AcDbDimStyleTableRecord
  2
Standard
 70
     0
340
9
  0
ENDTAB
  0
TABLE
  2
BLOCK_RECORD
  5
1
330
0
100
AcDbSymbolTable
 70
    61
  0
BLOCK_RECORD
  5
2
102
{ACAD_XDICTIONARY
360
4B2
102
}
330
1
100
AcDbSymbolTableRecord
100
AcDbBlockTableRecord
  2
*Model_Space
340
4B6
  0
BLOCK_RECORD
  5
4B8
102
{ACAD_XDICTIONARY
360
4B9
102
}
330
1
100
AcDbSymbolTableRecord
100
AcDbBlockTableRecord
  2
*Paper_Space
340
4BD
  0
BLOCK_RECORD
  5
4BE
102
{ACAD_XDICTIONARY
360
4BF
102
}
330
1
100
AcDbSymbolTableRecord
100
AcDbBlockTableRecord
  2
*Paper_Space0
340
4C3
  0
BLOCK_RECORD
  5
DF
330
1
100
AcDbSymbolTableRecord
100
AcDbBlockTableRecord
  2
_Open30
340
0
102
{BLKREFS
331
632A
331
632B
331
6333
331
6334
331
633C
331
633D
331
6347
331
6348
331
636B
331
636C
331
6374
331
6375
331
637D
331
637E
331
6386
331
6387
331
6316
331
6317
102
}
  0
BLOCK_RECORD
  5
279
330
1
100
AcDbSymbolTableRecord
100
AcDbBlockTableRecord
  2
TB6
340
0
102
{BLKREFS
331
1CF7
331
3B8A
331
3B8B
331
3B8C
331
3B8D
331
1CF8
331
1CF9
102
}
1001
ACAD
1000
DesignCenter Data
1002
{
1070
     1
1070
     4
1002
}
  0
BLOCK_RECORD
  5
1CFF
330
1
100
AcDbSymbolTableRecord
100
AcDbBlockTableRecord
  2
*D22
340
0
  0
BLOCK_RECORD
  5
1D0B
330
1
100
AcDbSymbolTableRecord
100
AcDbBlockTableRecord
  2
*D23
340
0
  0
BLOCK_RECORD
  5
1D17
330
1
100
AcDbSymbolTableRecord
100
AcDbBlockTableRecord
  2
*D24
340
0
  0
BLOCK_RECORD
  5
1D25
330
1
100
AcDbSymbolTableRecord
100
AcDbBlockTableRecord
  2
*D25
340
0
  0
BLOCK_RECORD
  5
1D31
330
1
100
AcDbSymbolTableRecord
100
AcDbBlockTableRecord
  2
*D26
340
0
  0
BLOCK_RECORD
  5
1D3D
330
1
100
AcDbSymbolTableRecord
100
AcDbBlockTableRecord
  2
*D27
340
0
  0
BLOCK_RECORD
  5
1D4B
330
1
100
AcDbSymbolTableRecord
100
AcDbBlockTableRecord
  2
*D28
340
0
  0
BLOCK_RECORD
  5
1D57
330
1
100
AcDbSymbolTableRecord
100
AcDbBlockTableRecord
  2
*D29
340
0
  0
BLOCK_RECORD
  5
1D63
330
1
100
AcDbSymbolTableRecord
100
AcDbBlockTableRecord
  2
*D30
340
0
  0
BLOCK_RECORD
  5
241C
330
1
100
AcDbSymbolTableRecord
100
AcDbBlockTableRecord
  2
清水
340
0
102
{BLKREFS
331
62F8
102
}
1001
ACAD
1000
DesignCenter Data
1002
{
1070
     1
1070
     4
1002
}
  0
BLOCK_RECORD
  5
49D4
330
1
100
AcDbSymbolTableRecord
100
AcDbBlockTableRecord
  2
P-H70
340
0
102
{BLKREFS
331
49E7
331
49E9
102
}
  0
BLOCK_RECORD
  5
4C2A
330
1
100
AcDbSymbolTableRecord
100
AcDbBlockTableRecord
  2
HGFB詳細(ﾊｲﾃﾝ)
340
0
102
{BLKREFS
331
62F9
102
}
1001
ACAD
1000
DesignCenter Data
1002
{
1070
     1
1070
     4
1002
}
  0
BLOCK_RECORD
  5
4D76
102
{ACAD_XDICTIONARY
360
4D77
102
}
330
1
100
AcDbSymbolTableRecord
100
AcDbBlockTableRecord
  2
鎌下
340
0
102
{BLKREFS
331
62FB
102
}
1001
ACAD
1000
DesignCenter Data
1002
{
1070
     1
1070
     4
1002
}
  0
BLOCK_RECORD
  5
63DB
102
{ACAD_REACTORS
330
642B
102
}
330
1
100
AcDbSymbolTableRecord
100
AcDbBlockTableRecord
  2
*U59
340
0
102
{BLKREFS
331
642F
331
6430
331
6431
331
6432
331
6433
331
6434
331
6435
331
6436
331
6437
331
6438
331
6439
331
643A
331
643B
331
643C
331
643D
102
}
  0
BLOCK_RECORD
  5
63DE
102
{ACAD_XDICTIONARY
360
647F
102
}
102
{ACAD_REACTORS
330
642A
102
}
330
1
100
AcDbSymbolTableRecord
100
AcDbBlockTableRecord
  2
*U60
340
0
102
{BLKREFS
331
63E1
102
}
  0
ENDTAB
  0
ENDSEC
  0
SECTION
  2
BLOCKS
  0
BLOCK
  5
4B4
330
2
100
AcDbEntity
  8
0
100
AcDbBlockBegin
  2
*Model_Space
 70
     0
 10
0.0
 20
0.0
 30
0.0
  3
*Model_Space
  1

  0
ENDBLK
  5
4B5
330
2
100
AcDbEntity
  8
0
100
AcDbBlockEnd
  0
BLOCK
  5
4BB
330
4B8
100
AcDbEntity
 67
     1
  8
0
100
AcDbBlockBegin
  2
*Paper_Space
 70
     0
 10
0.0
 20
0.0
 30
0.0
  3
*Paper_Space
  1

  0
ENDBLK
  5
4BC
330
4B8
100
AcDbEntity
 67
     1
  8
0
100
AcDbBlockEnd
  0
BLOCK
  5
4C1
330
4BE
100
AcDbEntity
 67
     1
  8
0
100
AcDbBlockBegin
  2
*Paper_Space0
 70
     0
 10
0.0
 20
0.0
 30
0.0
  3
*Paper_Space0
  1

  0
ENDBLK
  5
4C2
330
4BE
100
AcDbEntity
 67
     1
  8
0
100
AcDbBlockEnd
  0
BLOCK
  5
E3
330
DF
100
AcDbEntity
  8
0
100
AcDbBlockBegin
  2
_Open30
 70
     0
 10
0.0
 20
0.0
 30
0.0
  3
_Open30
  1

  0
LINE
  5
E0
330
DF
100
AcDbEntity
  8
0
  6
ByBlock
 62
     0
370
    -2
100
AcDbLine
 10
-1.0
 20
0.26794919
 30
0.0
 11
0.0
 21
0.0
 31
0.0
  0
LINE
  5
E1
330
DF
100
AcDbEntity
  8
0
  6
ByBlock
 62
     0
370
    -2
100
AcDbLine
 10
0.0
 20
0.0
 30
0.0
 11
-1.0
 21
-0.26794919
 31
0.0
  0
LINE
  5
E2
330
DF
100
AcDbEntity
  8
0
  6
ByBlock
 62
     0
370
    -2
100
AcDbLine
 10
0.0
 20
0.0
 30
0.0
 11
-1.0
 21
0.0
 31
0.0
  0
ENDBLK
  5
E4
330
DF
100
AcDbEntity
  8
0
100
AcDbBlockEnd
  0
BLOCK
  5
27F
330
279
100
AcDbEntity
  8
0
100
AcDbBlockBegin
  2
TB6
 70
     0
 10
0.0
 20
0.0
 30
0.0
  3
TB6
  1

  0
MTEXT
  5
27A
330
279
100
AcDbEntity
  8
寸法線
  6
Continuous
100
AcDbMText
 10
917.3216494432054
 20
235.349302881973
 30
0.0
 40
20.0
 41
17.2146
 71
     7
 72
     1
  1

 73
     1
 44
1.0
1001
ACAD
1000
MTEXTBEGIN
1070
    73
1070
     1
1070
    44
1040
1.0
1070
    74
1070
     0
1000
MTEXTEND
  0
LINE
  5
27B
330
279
100
AcDbEntity
  8
本体
  6
CENTER
 62
     1
 48
0.3
100
AcDbLine
 10
9.0
 20
0.0
 30
0.0
 11
-3.0
 21
0.0
 31
0.0
  0
LINE
  5
27D
330
279
100
AcDbEntity
  8
本体
  6
CENTER
 62
     1
 48
0.3
100
AcDbLine
 10
3.0
 20
6.0
 30
0.0
 11
3.0
 21
-6.0
 31
0.0
  0
CIRCLE
  5
27E
330
279
100
AcDbEntity
  8
本体
  6
Continuous
 62
     0
100
AcDbCircle
 10
3.0
 20
0.0
 30
0.0
 40
3.0
  0
ENDBLK
  5
280
330
279
100
AcDbEntity
  8
0
100
AcDbBlockEnd
  0
BLOCK
  5
1D09
330
1CFF
100
AcDbEntity
  8
0
 48
3.0
100
AcDbBlockBegin
  2
*D22
 70
     1
 10
0.0
 20
0.0
 30
0.0
  3
*D22
  1

  0
LINE
  5
6313
330
1CFF
100
AcDbEntity
  8
寸法線
  6
Continuous
 62
     0
370
    -2
100
AcDbLine
 10
3465.128652219982
 20
1534.747982474914
 30
0.0
 11
3465.128652219982
 21
1695.750772596619
 31
0.0
  0
LINE
  5
6314
330
1CFF
100
AcDbEntity
  8
寸法線
  6
Continuous
 62
     0
370
    -2
100
AcDbLine
 10
3965.128652219982
 20
1534.747982474914
 30
0.0
 11
3965.128652219982
 21
1695.750772596619
 31
0.0
  0
LINE
  5
6315
330
1CFF
100
AcDbEntity
  8
寸法線
  6
Continuous
 62
     0
370
    -2
100
AcDbLine
 10
3480.128652219983
 20
1680.750772596619
 30
0.0
 11
3950.128652219982
 21
1680.750772596619
 31
0.0
  0
INSERT
  5
6316
330
1CFF
100
AcDbEntity
  8
寸法線
  6
Continuous
 62
     0
370
    -2
100
AcDbBlockReference
  2
_Open30
 10
3465.128652219982
 20
1680.750772596619
 30
0.0
 41
15.0
 42
15.0
 43
15.0
 50
180.0
  0
INSERT
  5
6317
330
1CFF
100
AcDbEntity
  8
寸法線
  6
Continuous
 62
     0
370
    -2
100
AcDbBlockReference
  2
_Open30
 10
3965.128652219982
 20
1680.750772596619
 30
0.0
 41
15.0
 42
15.0
 43
15.0
  0
MTEXT
  5
6318
330
1CFF
100
AcDbEntity
  8
寸法線
  6
Continuous
 62
     0
100
AcDbMText
 10
3715.128652219982
 20
1700.750772596619
 30
0.0
 40
30.0
 41
0.0
 71
     5
 72
     1
  1
500
 73
     1
 44
1.0
1001
ACAD
1000
MTEXTBEGIN
1070
    73
1070
     1
1070
    44
1040
1.0
1070
    74
1070
     0
1000
MTEXTEND
  0
POINT
  5
6319
330
1CFF
100
AcDbEntity
  8
Defpoints
  6
Continuous
 62
     0
100
AcDbPoint
 10
3465.128652219982
 20
1514.747982474914
 30
0.0
  0
POINT
  5
631A
330
1CFF
100
AcDbEntity
  8
Defpoints
  6
Continuous
 62
     0
100
AcDbPoint
 10
3965.128652219982
 20
1514.747982474914
 30
0.0
  0
POINT
  5
631B
330
1CFF
100
AcDbEntity
  8
Defpoints
  6
Continuous
 62
     0
100
AcDbPoint
 10
3965.128652219982
 20
1680.750772596619
 30
0.0
  0
ENDBLK
  5
1D0A
330
1CFF
100
AcDbEntity
  8
0
 48
3.0
100
AcDbBlockEnd
  0
BLOCK
  5
1D15
330
1D0B
100
AcDbEntity
  8
0
 48
3.0
100
AcDbBlockBegin
  2
*D23
 70
     1
 10
0.0
 20
0.0
 30
0.0
  3
*D23
  1

  0
LINE
  5
6383
330
1D0B
100
AcDbEntity
  8
寸法線
  6
Continuous
 62
     0
370
    -2
100
AcDbLine
 10
3467.628652219982
 20
1405.747982474914
 30
0.0
 11
3467.628652219982
 21
1250.747982474914
 31
0.0
  0
LINE
  5
6384
330
1D0B
100
AcDbEntity
  8
寸法線
  6
Continuous
 62
     0
370
    -2
100
AcDbLine
 10
3962.628652219982
 20
1405.747982474914
 30
0.0
 11
3962.628652219982
 21
1250.747982474914
 31
0.0
  0
LINE
  5
6385
330
1D0B
100
AcDbEntity
  8
寸法線
  6
Continuous
 62
     0
370
    -2
100
AcDbLine
 10
3482.628652219982
 20
1265.747982474914
 30
0.0
 11
3947.628652219981
 21
1265.747982474914
 31
0.0
  0
INSERT
  5
6386
330
1D0B
100
AcDbEntity
  8
寸法線
  6
Continuous
 62
     0
370
    -2
100
AcDbBlockReference
  2
_Open30
 10
3467.628652219982
 20
1265.747982474914
 30
0.0
 41
15.0
 42
15.0
 43
15.0
 50
180.0
  0
INSERT
  5
6387
330
1D0B
100
AcDbEntity
  8
寸法線
  6
Continuous
 62
     0
370
    -2
100
AcDbBlockReference
  2
_Open30
 10
3962.628652219982
 20
1265.747982474914
 30
0.0
 41
15.0
 42
15.0
 43
15.0
  0
MTEXT
  5
6388
330
1D0B
100
AcDbEntity
  8
寸法線
  6
Continuous
 62
     0
100
AcDbMText
 10
3715.128652219982
 20
1285.747982474914
 30
0.0
 40
30.0
 41
0.0
 71
     5
 72
     1
  1
495
 73
     1
 44
1.0
1001
ACAD
1000
MTEXTBEGIN
1070
    73
1070
     1
1070
    44
1040
1.0
1070
    74
1070
     0
1000
MTEXTEND
  0
POINT
  5
6389
330
1D0B
100
AcDbEntity
  8
Defpoints
  6
Continuous
 62
     0
100
AcDbPoint
 10
3467.628652219982
 20
1425.747982474914
 30
0.0
  0
POINT
  5
638A
330
1D0B
100
AcDbEntity
  8
Defpoints
  6
Continuous
 62
     0
100
AcDbPoint
 10
3962.628652219982
 20
1425.747982474914
 30
0.0
  0
POINT
  5
638B
330
1D0B
100
AcDbEntity
  8
Defpoints
  6
Continuous
 62
     0
100
AcDbPoint
 10
3962.628652219982
 20
1265.747982474914
 30
0.0
  0
ENDBLK
  5
1D16
330
1D0B
100
AcDbEntity
  8
0
 48
3.0
100
AcDbBlockEnd
  0
BLOCK
  5
1D23
330
1D17
100
AcDbEntity
  8
0
 48
3.0
100
AcDbBlockBegin
  2
*D24
 70
     1
 10
0.0
 20
0.0
 30
0.0
  3
*D24
  1

  0
LINE
  5
6325
330
1D17
100
AcDbEntity
  8
寸法線
  6
Continuous
 62
     0
370
    -2
100
AcDbLine
 10
3706.628652219983
 20
1540.747982474914
 30
0.0
 11
3706.628652219983
 21
1604.545376428157
 31
0.0
  0
LINE
  5
6326
330
1D17
100
AcDbEntity
  8
寸法線
  6
Continuous
 62
     0
370
    -2
100
AcDbLine
 10
3736.628652219982
 20
1540.747982474914
 30
0.0
 11
3736.628652219982
 21
1604.545376428157
 31
0.0
  0
LINE
  5
6327
330
1D17
100
AcDbEntity
  8
寸法線
  6
Continuous
 62
     0
370
    -2
100
AcDbLine
 10
3691.628652219982
 20
1589.545376428157
 30
0.0
 11
3676.628652219982
 21
1589.545376428157
 31
0.0
  0
LINE
  5
6328
330
1D17
100
AcDbEntity
  8
寸法線
  6
Continuous
 62
     0
370
    -2
100
AcDbLine
 10
3751.628652219982
 20
1589.545376428157
 30
0.0
 11
3812.415454250439
 21
1589.545376428157
 31
0.0
  0
LINE
  5
6329
330
1D17
100
AcDbEntity
  8
寸法線
  6
Continuous
 62
     0
370
    -2
100
AcDbLine
 10
3706.628652219983
 20
1589.545376428157
 30
0.0
 11
3736.628652219982
 21
1589.545376428157
 31
0.0
  0
INSERT
  5
632A
330
1D17
100
AcDbEntity
  8
寸法線
  6
Continuous
 62
     0
370
    -2
100
AcDbBlockReference
  2
_Open30
 10
3706.628652219983
 20
1589.545376428157
 30
0.0
 41
15.0
 42
15.0
 43
15.0
  0
INSERT
  5
632B
330
1D17
100
AcDbEntity
  8
寸法線
  6
Continuous
 62
     0
370
    -2
100
AcDbBlockReference
  2
_Open30
 10
3736.628652219982
 20
1589.545376428157
 30
0.0
 41
15.0
 42
15.0
 43
15.0
 50
180.0
  0
MTEXT
  5
632C
330
1D17
100
AcDbEntity
  8
寸法線
  6
Continuous
 62
     0
100
AcDbMText
 10
3789.52205323521
 20
1609.545376428157
 30
0.0
 40
30.0
 41
0.0
 71
     5
 72
     1
  1
30
 73
     1
 44
1.0
1001
ACAD
1000
MTEXTBEGIN
1070
    73
1070
     1
1070
    44
1040
1.0
1070
    74
1070
     0
1000
MTEXTEND
  0
POINT
  5
632D
330
1D17
100
AcDbEntity
  8
Defpoints
  6
Continuous
 62
     0
100
AcDbPoint
 10
3706.628652219983
 20
1520.747982474914
 30
0.0
  0
POINT
  5
632E
330
1D17
100
AcDbEntity
  8
Defpoints
  6
Continuous
 62
     0
100
AcDbPoint
 10
3736.628652219982
 20
1520.747982474914
 30
0.0
  0
POINT
  5
632F
330
1D17
100
AcDbEntity
  8
Defpoints
  6
Continuous
 62
     0
100
AcDbPoint
 10
3736.628652219982
 20
1589.545376428157
 30
0.0
  0
ENDBLK
  5
1D24
330
1D17
100
AcDbEntity
  8
0
 48
3.0
100
AcDbBlockEnd
  0
BLOCK
  5
1D2F
330
1D25
100
AcDbEntity
  8
0
 48
3.0
100
AcDbBlockBegin
  2
*D25
 70
     1
 10
0.0
 20
0.0
 30
0.0
  3
*D25
  1

  0
LINE
  5
6330
330
1D25
100
AcDbEntity
  8
寸法線
 62
     0
 48
3.0
370
    -2
100
AcDbLine
 10
3984.628652219982
 20
1425.747982474914
 30
0.0
 11
4089.633276143746
 21
1425.747982474914
 31
0.0
  0
LINE
  5
6331
330
1D25
100
AcDbEntity
  8
寸法線
 62
     0
 48
3.0
370
    -2
100
AcDbLine
 10
3987.128652219983
 20
1495.747982474914
 30
0.0
 11
4089.633276143746
 21
1495.747982474914
 31
0.0
  0
LINE
  5
6332
330
1D25
100
AcDbEntity
  8
寸法線
 62
     0
 48
3.0
370
    -2
100
AcDbLine
 10
4074.633276143745
 20
1440.747982474914
 30
0.0
 11
4074.633276143745
 21
1480.747982474914
 31
0.0
  0
INSERT
  5
6333
330
1D25
100
AcDbEntity
  8
寸法線
 62
     0
 48
3.0
370
    -2
100
AcDbBlockReference
  2
_Open30
 10
4074.633276143745
 20
1425.747982474914
 30
0.0
 41
15.0
 42
15.0
 43
15.0
 50
270.0
  0
INSERT
  5
6334
330
1D25
100
AcDbEntity
  8
寸法線
 62
     0
 48
3.0
370
    -2
100
AcDbBlockReference
  2
_Open30
 10
4074.633276143745
 20
1495.747982474914
 30
0.0
 41
15.0
 42
15.0
 43
15.0
 50
90.0
  0
MTEXT
  5
6335
330
1D25
100
AcDbEntity
  8
寸法線
 62
     0
 48
3.0
100
AcDbMText
 10
4054.633276143746
 20
1460.747982474915
 30
0.0
 40
30.0
 41
0.0
 71
     5
 72
     1
  1
70
 11
0.0000000000000001
 21
1.0
 31
0.0
 73
     1
 44
1.0
1001
ACAD
1000
MTEXTBEGIN
1070
    73
1070
     1
1070
    44
1040
1.0
1070
    74
1070
     0
1000
MTEXTEND
  0
POINT
  5
6336
330
1D25
100
AcDbEntity
  8
Defpoints
 62
     0
 48
3.0
100
AcDbPoint
 10
3964.628652219982
 20
1425.747982474914
 30
0.0
  0
POINT
  5
6337
330
1D25
100
AcDbEntity
  8
Defpoints
 62
     0
 48
3.0
100
AcDbPoint
 10
3967.128652219982
 20
1495.747982474914
 30
0.0
  0
POINT
  5
6338
330
1D25
100
AcDbEntity
  8
Defpoints
 62
     0
 48
3.0
100
AcDbPoint
 10
4074.633276143745
 20
1495.747982474914
 30
0.0
  0
ENDBLK
  5
1D30
330
1D25
100
AcDbEntity
  8
0
 48
3.0
100
AcDbBlockEnd
  0
BLOCK
  5
1D3B
330
1D31
100
AcDbEntity
  8
0
 48
3.0
100
AcDbBlockBegin
  2
*D26
 70
     1
 10
0.0
 20
0.0
 30
0.0
  3
*D26
  1

  0
LINE
  5
6339
330
1D31
100
AcDbEntity
  8
寸法線
  6
Continuous
 62
     0
370
    -2
100
AcDbLine
 10
3985.128652219982
 20
1514.747982474914
 30
0.0
 11
4169.635513047246
 21
1514.747982474914
 31
0.0
  0
LINE
  5
633A
330
1D31
100
AcDbEntity
  8
寸法線
  6
Continuous
 62
     0
370
    -2
100
AcDbLine
 10
3984.628652219982
 20
1425.747982474914
 30
0.0
 11
4169.635513047246
 21
1425.747982474914
 31
0.0
  0
LINE
  5
633B
330
1D31
100
AcDbEntity
  8
寸法線
  6
Continuous
 62
     0
370
    -2
100
AcDbLine
 10
4154.635513047245
 20
1499.747982474914
 30
0.0
 11
4154.635513047245
 21
1440.747982474914
 31
0.0
  0
INSERT
  5
633C
330
1D31
100
AcDbEntity
  8
寸法線
  6
Continuous
 62
     0
370
    -2
100
AcDbBlockReference
  2
_Open30
 10
4154.635513047245
 20
1514.747982474914
 30
0.0
 41
15.0
 42
15.0
 43
15.0
 50
90.0
  0
INSERT
  5
633D
330
1D31
100
AcDbEntity
  8
寸法線
  6
Continuous
 62
     0
370
    -2
100
AcDbBlockReference
  2
_Open30
 10
4154.635513047245
 20
1425.747982474914
 30
0.0
 41
15.0
 42
15.0
 43
15.0
 50
270.0
  0
MTEXT
  5
633E
330
1D31
100
AcDbEntity
  8
寸法線
  6
Continuous
 62
     0
100
AcDbMText
 10
4134.635513047244
 20
1470.247982474915
 30
0.0
 40
30.0
 41
0.0
 71
     5
 72
     1
  1
89
 11
0.0000000000000001
 21
1.0
 31
0.0
 73
     1
 44
1.0
1001
ACAD
1000
MTEXTBEGIN
1070
    73
1070
     1
1070
    44
1040
1.0
1070
    74
1070
     0
1000
MTEXTEND
  0
POINT
  5
633F
330
1D31
100
AcDbEntity
  8
Defpoints
  6
Continuous
 62
     0
100
AcDbPoint
 10
3965.128652219982
 20
1514.747982474914
 30
0.0
  0
POINT
  5
6340
330
1D31
100
AcDbEntity
  8
Defpoints
  6
Continuous
 62
     0
100
AcDbPoint
 10
3964.628652219982
 20
1425.747982474914
 30
0.0
  0
POINT
  5
6341
330
1D31
100
AcDbEntity
  8
Defpoints
  6
Continuous
 62
     0
100
AcDbPoint
 10
4154.635513047245
 20
1425.747982474914
 30
0.0
  0
ENDBLK
  5
1D3C
330
1D31
100
AcDbEntity
  8
0
 48
3.0
100
AcDbBlockEnd
  0
BLOCK
  5
1D49
330
1D3D
100
AcDbEntity
  8
0
 48
3.0
100
AcDbBlockBegin
  2
*D27
 70
     1
 10
0.0
 20
0.0
 30
0.0
  3
*D27
  1

  0
LINE
  5
6342
330
1D3D
100
AcDbEntity
  8
寸法線
  6
Continuous
 62
     0
370
    -2
100
AcDbLine
 10
3984.628652219982
 20
1495.747982474914
 30
0.0
 11
4089.633276143746
 21
1495.747982474914
 31
0.0
  0
LINE
  5
6343
330
1D3D
100
AcDbEntity
  8
寸法線
  6
Continuous
 62
     0
370
    -2
100
AcDbLine
 10
3985.128652219982
 20
1514.747982474914
 30
0.0
 11
4089.633276143746
 21
1514.747982474914
 31
0.0
  0
LINE
  5
6344
330
1D3D
100
AcDbEntity
  8
寸法線
  6
Continuous
 62
     0
370
    -2
100
AcDbLine
 10
4074.633276143745
 20
1480.747982474914
 30
0.0
 11
4074.633276143745
 21
1465.747982474914
 31
0.0
  0
LINE
  5
6345
330
1D3D
100
AcDbEntity
  8
寸法線
  6
Continuous
 62
     0
370
    -2
100
AcDbLine
 10
4074.633276143745
 20
1529.747982474914
 30
0.0
 11
4074.633276143745
 21
1587.641383490142
 31
0.0
  0
LINE
  5
6346
330
1D3D
100
AcDbEntity
  8
寸法線
  6
Continuous
 62
     0
370
    -2
100
AcDbLine
 10
4074.633276143745
 20
1495.747982474914
 30
0.0
 11
4074.633276143745
 21
1514.747982474914
 31
0.0
  0
INSERT
  5
6347
330
1D3D
100
AcDbEntity
  8
寸法線
  6
Continuous
 62
     0
370
    -2
100
AcDbBlockReference
  2
_Open30
 10
4074.633276143745
 20
1495.747982474914
 30
0.0
 41
15.0
 42
15.0
 43
15.0
 50
90.0
  0
INSERT
  5
6348
330
1D3D
100
AcDbEntity
  8
寸法線
  6
Continuous
 62
     0
370
    -2
100
AcDbBlockReference
  2
_Open30
 10
4074.633276143745
 20
1514.747982474914
 30
0.0
 41
15.0
 42
15.0
 43
15.0
 50
270.0
  0
MTEXT
  5
6349
330
1D3D
100
AcDbEntity
  8
寸法線
  6
Continuous
 62
     0
100
AcDbMText
 10
4054.633276143746
 20
1566.194682982529
 30
0.0
 40
30.0
 41
0.0
 71
     5
 72
     1
  1
19
 11
0.0000000000000001
 21
1.0
 31
0.0
 73
     1
 44
1.0
1001
ACAD
1000
MTEXTBEGIN
1070
    73
1070
     1
1070
    44
1040
1.0
1070
    74
1070
     0
1000
MTEXTEND
  0
POINT
  5
634A
330
1D3D
100
AcDbEntity
  8
Defpoints
  6
Continuous
 62
     0
100
AcDbPoint
 10
3964.628652219982
 20
1495.747982474914
 30
0.0
  0
POINT
  5
634B
330
1D3D
100
AcDbEntity
  8
Defpoints
  6
Continuous
 62
     0
100
AcDbPoint
 10
3965.128652219982
 20
1514.747982474914
 30
0.0
  0
POINT
  5
634C
330
1D3D
100
AcDbEntity
  8
Defpoints
  6
Continuous
 62
     0
100
AcDbPoint
 10
4074.633276143745
 20
1514.747982474914
 30
0.0
  0
ENDBLK
  5
1D4A
330
1D3D
100
AcDbEntity
  8
0
 48
3.0
100
AcDbBlockEnd
  0
BLOCK
  5
1D55
330
1D4B
100
AcDbEntity
  8
0
 48
3.0
100
AcDbBlockBegin
  2
*D28
 70
     1
 10
0.0
 20
0.0
 30
0.0
  3
*D28
  1

  0
LINE
  5
6368
330
1D4B
100
AcDbEntity
  8
寸法線
  6
Continuous
 62
     0
370
    -2
100
AcDbLine
 10
5155.421496575606
 20
1408.747986074914
 30
0.0
 11
5155.421496575606
 21
1340.747063967037
 31
0.0
  0
LINE
  5
6369
330
1D4B
100
AcDbEntity
  8
寸法線
  6
Continuous
 62
     0
370
    -2
100
AcDbLine
 10
4815.421490575605
 20
1408.747986074914
 30
0.0
 11
4815.421490575605
 21
1340.747063967037
 31
0.0
  0
LINE
  5
636A
330
1D4B
100
AcDbEntity
  8
寸法線
  6
Continuous
 62
     0
370
    -2
100
AcDbLine
 10
5140.421496575608
 20
1355.747063967037
 30
0.0
 11
4830.421490575606
 21
1355.747063967037
 31
0.0
  0
INSERT
  5
636B
330
1D4B
100
AcDbEntity
  8
寸法線
  6
Continuous
 62
     0
370
    -2
100
AcDbBlockReference
  2
_Open30
 10
5155.421496575606
 20
1355.747063967037
 30
0.0
 41
15.0
 42
15.0
 43
15.0
  0
INSERT
  5
636C
330
1D4B
100
AcDbEntity
  8
寸法線
  6
Continuous
 62
     0
370
    -2
100
AcDbBlockReference
  2
_Open30
 10
4815.421490575605
 20
1355.747063967037
 30
0.0
 41
15.0
 42
15.0
 43
15.0
 50
180.0
  0
MTEXT
  5
636D
330
1D4B
100
AcDbEntity
  8
寸法線
  6
Continuous
 62
     0
100
AcDbMText
 10
4985.421493575606
 20
1375.747063967037
 30
0.0
 40
30.0
 41
0.0
 71
     5
 72
     1
  1
340
 73
     1
 44
1.0
1001
ACAD
1000
MTEXTBEGIN
1070
    73
1070
     1
1070
    44
1040
1.0
1070
    74
1070
     0
1000
MTEXTEND
  0
POINT
  5
636E
330
1D4B
100
AcDbEntity
  8
Defpoints
  6
Continuous
 62
     0
100
AcDbPoint
 10
5155.421496575606
 20
1428.747986074914
 30
0.0
  0
POINT
  5
636F
330
1D4B
100
AcDbEntity
  8
Defpoints
  6
Continuous
 62
     0
100
AcDbPoint
 10
4815.421490575605
 20
1428.747986074914
 30
0.0
  0
POINT
  5
6370
330
1D4B
100
AcDbEntity
  8
Defpoints
  6
Continuous
 62
     0
100
AcDbPoint
 10
4815.421490575605
 20
1355.747063967037
 30
0.0
  0
ENDBLK
  5
1D56
330
1D4B
100
AcDbEntity
  8
0
 48
3.0
100
AcDbBlockEnd
  0
BLOCK
  5
1D61
330
1D57
100
AcDbEntity
  8
0
 48
3.0
100
AcDbBlockBegin
  2
*D29
 70
     1
 10
0.0
 20
0.0
 30
0.0
  3
*D29
  1

  0
LINE
  5
6371
330
1D57
100
AcDbEntity
  8
寸法線
  6
Continuous
 62
     0
370
    -2
100
AcDbLine
 10
5165.421493575607
 20
1534.747982474914
 30
0.0
 11
5165.421493575607
 21
1689.755404406894
 31
0.0
  0
LINE
  5
6372
330
1D57
100
AcDbEntity
  8
寸法線
  6
Continuous
 62
     0
370
    -2
100
AcDbLine
 10
4805.421493575606
 20
1534.747982474914
 30
0.0
 11
4805.421493575606
 21
1689.755404406894
 31
0.0
  0
LINE
  5
6373
330
1D57
100
AcDbEntity
  8
寸法線
  6
Continuous
 62
     0
370
    -2
100
AcDbLine
 10
5150.421493575606
 20
1674.755404406894
 30
0.0
 11
4820.421493575606
 21
1674.755404406894
 31
0.0
  0
INSERT
  5
6374
330
1D57
100
AcDbEntity
  8
寸法線
  6
Continuous
 62
     0
370
    -2
100
AcDbBlockReference
  2
_Open30
 10
5165.421493575607
 20
1674.755404406894
 30
0.0
 41
15.0
 42
15.0
 43
15.0
  0
INSERT
  5
6375
330
1D57
100
AcDbEntity
  8
寸法線
  6
Continuous
 62
     0
370
    -2
100
AcDbBlockReference
  2
_Open30
 10
4805.421493575606
 20
1674.755404406894
 30
0.0
 41
15.0
 42
15.0
 43
15.0
 50
180.0
  0
MTEXT
  5
6376
330
1D57
100
AcDbEntity
  8
寸法線
  6
Continuous
 62
     0
100
AcDbMText
 10
4985.421493575606
 20
1694.755404406893
 30
0.0
 40
30.0
 41
0.0
 71
     5
 72
     1
  1
360
 73
     1
 44
1.0
1001
ACAD
1000
MTEXTBEGIN
1070
    73
1070
     1
1070
    44
1040
1.0
1070
    74
1070
     0
1000
MTEXTEND
  0
POINT
  5
6377
330
1D57
100
AcDbEntity
  8
Defpoints
  6
Continuous
 62
     0
100
AcDbPoint
 10
5165.421493575607
 20
1514.747982474914
 30
0.0
  0
POINT
  5
6378
330
1D57
100
AcDbEntity
  8
Defpoints
  6
Continuous
 62
     0
100
AcDbPoint
 10
4805.421493575606
 20
1514.747982474914
 30
0.0
  0
POINT
  5
6379
330
1D57
100
AcDbEntity
  8
Defpoints
  6
Continuous
 62
     0
100
AcDbPoint
 10
4805.421493575606
 20
1674.755404406894
 30
0.0
  0
ENDBLK
  5
1D62
330
1D57
100
AcDbEntity
  8
0
 48
3.0
100
AcDbBlockEnd
  0
BLOCK
  5
1D6D
330
1D63
100
AcDbEntity
  8
0
 48
3.0
100
AcDbBlockBegin
  2
*D30
 70
     1
 10
0.0
 20
0.0
 30
0.0
  3
*D30
  1

  0
LINE
  5
637A
330
1D63
100
AcDbEntity
  8
寸法線
  6
Continuous
 62
     0
370
    -2
100
AcDbLine
 10
5085.421493575606
 20
1534.747982474914
 30
0.0
 11
5085.421493575606
 21
1609.751652523547
 31
0.0
  0
LINE
  5
637B
330
1D63
100
AcDbEntity
  8
寸法線
  6
Continuous
 62
     0
370
    -2
100
AcDbLine
 10
5035.421493575606
 20
1537.747982474914
 30
0.0
 11
5035.421493575606
 21
1609.751652523547
 31
0.0
  0
LINE
  5
637C
330
1D63
100
AcDbEntity
  8
寸法線
  6
Continuous
 62
     0
370
    -2
100
AcDbLine
 10
5070.421493575606
 20
1594.751652523547
 30
0.0
 11
5050.421493575607
 21
1594.751652523547
 31
0.0
  0
INSERT
  5
637D
330
1D63
100
AcDbEntity
  8
寸法線
  6
Continuous
 62
     0
370
    -2
100
AcDbBlockReference
  2
_Open30
 10
5085.421493575606
 20
1594.751652523547
 30
0.0
 41
15.0
 42
15.0
 43
15.0
  0
INSERT
  5
637E
330
1D63
100
AcDbEntity
  8
寸法線
  6
Continuous
 62
     0
370
    -2
100
AcDbBlockReference
  2
_Open30
 10
5035.421493575606
 20
1594.751652523547
 30
0.0
 41
15.0
 42
15.0
 43
15.0
 50
180.0
  0
MTEXT
  5
637F
330
1D63
100
AcDbEntity
  8
寸法線
  6
Continuous
 62
     0
100
AcDbMText
 10
5060.421493575606
 20
1614.751652523547
 30
0.0
 40
30.0
 41
0.0
 71
     5
 72
     1
  1
50
 73
     1
 44
1.0
1001
ACAD
1000
MTEXTBEGIN
1070
    73
1070
     1
1070
    44
1040
1.0
1070
    74
1070
     0
1000
MTEXTEND
  0
POINT
  5
6380
330
1D63
100
AcDbEntity
  8
Defpoints
  6
Continuous
 62
     0
100
AcDbPoint
 10
5085.421493575606
 20
1514.747982474914
 30
0.0
  0
POINT
  5
6381
330
1D63
100
AcDbEntity
  8
Defpoints
  6
Continuous
 62
     0
100
AcDbPoint
 10
5035.421493575606
 20
1517.747982474914
 30
0.0
  0
POINT
  5
6382
330
1D63
100
AcDbEntity
  8
Defpoints
  6
Continuous
 62
     0
100
AcDbPoint
 10
5035.421493575606
 20
1594.751652523547
 30
0.0
  0
ENDBLK
  5
1D6E
330
1D63
100
AcDbEntity
  8
0
 48
3.0
100
AcDbBlockEnd
  0
BLOCK
  5
2420
330
241C
100
AcDbEntity
  8
0
 48
3.0
100
AcDbBlockBegin
  2
清水
 70
     0
 10
0.0
 20
0.0
 30
0.0
  3
清水
  1

  0
MTEXT
  5
241D
330
241C
100
AcDbEntity
  8
外枠
  6
Continuous
100
AcDbMText
 10
40.55333581259037
 20
-88.14888116777728
 30
0.0
 40
28.17460800000001
 41
43.8527
 71
     1
 72
     5
  1
{\fHG正楷書体-PRO|b0|i0|c128|p65;水}
 73
     1
 44
1.0
1001
ACAD
1000
MTEXTBEGIN
1070
    73
1070
     1
1070
    44
1040
1.0
1070
    74
1070
     0
1000
MTEXTEND
  0
MTEXT
  5
241E
330
241C
100
AcDbEntity
  8
外枠
  6
Continuous
100
AcDbMText
 10
40.55333581259037
 20
-45.6188562986499
 30
0.0
 40
28.17460800000001
 41
43.8527
 71
     1
 72
     5
  1
{\fHG正楷書体-PRO|b0|i0|c128|p65;清}
 73
     1
 44
1.0
1001
ACAD
1000
MTEXTBEGIN
1070
    73
1070
     1
1070
    44
1040
1.0
1070
    74
1070
     0
1000
MTEXTEND
  0
ELLIPSE
  5
241F
330
241C
100
AcDbEntity
  8
外枠
  6
Continuous
100
AcDbEllipse
 10
61.68068686355035
 20
-84.59863033186413
 30
0.0
 11
0.0
 21
-47.85944421494259
 31
0.0
210
0.0
220
0.0
230
1.0
 40
0.7999999999999857
 41
0.0
 42
6.283185307179585
  0
ENDBLK
  5
2421
330
241C
100
AcDbEntity
  8
0
 48
3.0
100
AcDbBlockEnd
  0
BLOCK
  5
49E5
330
49D4
100
AcDbEntity
  8
0
 48
3.0
100
AcDbBlockBegin
  2
P-H70
 70
     0
 10
0.0
 20
0.0
 30
0.0
  3
P-H70
  1

  0
LINE
  5
49D5
330
49D4
100
AcDbEntity
  8
0
100
AcDbLine
 10
2.999997
 20
0.000001
 30
0.0
 11
66.99999699999999
 21
0.000001
 31
0.0
  0
LINE
  5
49D6
330
49D4
100
AcDbEntity
  8
0
100
AcDbLine
 10
-0.000003
 20
-2.999999
 30
0.0
 11
-0.000003
 21
-36.999999
 31
0.0
  0
LINE
  5
49D7
330
49D4
100
AcDbEntity
  8
0
100
AcDbLine
 10
2.999997
 20
-39.999999
 30
0.0
 11
66.99999699999999
 21
-39.999999
 31
0.0
  0
ARC
  5
49D8
330
49D4
100
AcDbEntity
  8
0
100
AcDbCircle
 10
2.999997
 20
-36.999999
 30
0.0
 40
3.0
100
AcDbArc
 50
180.0
 51
270.0
  0
ARC
  5
49D9
330
49D4
100
AcDbEntity
  8
0
100
AcDbCircle
 10
2.999997
 20
-2.999999
 30
0.0
 40
3.0
100
AcDbArc
 50
90.0
 51
180.0
  0
LINE
  5
49DA
330
49D4
100
AcDbEntity
  8
0
100
AcDbLine
 10
69.999997
 20
-36.999999
 30
0.0
 11
69.999997
 21
-2.999999
 31
0.0
  0
ARC
  5
49DB
330
49D4
100
AcDbEntity
  8
0
100
AcDbCircle
 10
66.99999699999999
 20
-2.999999
 30
0.0
 40
3.0
100
AcDbArc
 50
0.0
 51
90.0
  0
ARC
  5
49DC
330
49D4
100
AcDbEntity
  8
0
100
AcDbCircle
 10
66.99999699999999
 20
-36.999999
 30
0.0
 40
3.0
100
AcDbArc
 50
270.0
 51
0.0
  0
ARC
  5
49DD
330
49D4
100
AcDbEntity
  8
0
100
AcDbCircle
 10
2.999997
 20
-2.999999
 30
0.0
 40
0.7000000000000002
100
AcDbArc
 50
90.0
 51
180.0
  0
LINE
  5
49DE
330
49D4
100
AcDbEntity
  8
0
100
AcDbLine
 10
2.999997
 20
-2.299998999999999
 30
0.0
 11
66.99999699999999
 21
-2.299998999999999
 31
0.0
  0
LINE
  5
49DF
330
49D4
100
AcDbEntity
  8
0
100
AcDbLine
 10
2.299996999999998
 20
-2.999999
 30
0.0
 11
2.299996999999998
 21
-36.999999
 31
0.0
  0
ARC
  5
49E0
330
49D4
100
AcDbEntity
  8
0
100
AcDbCircle
 10
2.999997
 20
-36.999999
 30
0.0
 40
0.7000000000000002
100
AcDbArc
 50
180.0
 51
270.0
  0
LINE
  5
49E1
330
49D4
100
AcDbEntity
  8
0
100
AcDbLine
 10
2.999997
 20
-37.69999900000001
 30
0.0
 11
66.99999699999999
 21
-37.69999900000001
 31
0.0
  0
ARC
  5
49E2
330
49D4
100
AcDbEntity
  8
0
100
AcDbCircle
 10
66.99999699999999
 20
-36.999999
 30
0.0
 40
0.7000000000000002
100
AcDbArc
 50
270.0
 51
0.0
  0
LINE
  5
49E3
330
49D4
100
AcDbEntity
  8
0
100
AcDbLine
 10
67.69999699999999
 20
-36.999999
 30
0.0
 11
67.69999699999999
 21
-2.999999
 31
0.0
  0
ARC
  5
49E4
330
49D4
100
AcDbEntity
  8
0
100
AcDbCircle
 10
66.99999699999999
 20
-2.999999
 30
0.0
 40
0.7000000000000002
100
AcDbArc
 50
0.0
 51
90.0
  0
ENDBLK
  5
49E6
330
49D4
100
AcDbEntity
  8
0
 48
3.0
100
AcDbBlockEnd
  0
BLOCK
  5
4CA3
330
4C2A
100
AcDbEntity
  8
0
 48
3.0
100
AcDbBlockBegin
  2
HGFB詳細(ﾊｲﾃﾝ)
 70
     0
 10
0.0
 20
0.0
 30
0.0
  3
HGFB詳細(ﾊｲﾃﾝ)
  1

  0
MTEXT
  5
4C2B
330
4C2A
100
AcDbEntity
  8
寸法線
  6
Continuous
100
AcDbMText
 10
583.0059363526352
 20
521.5924940640631
 30
0.0
 40
20.0
 41
17.2146
 71
     7
 72
     1
  1

 73
     1
 44
1.0
1001
ACAD
1000
MTEXTBEGIN
1070
    73
1070
     1
1070
    44
1040
1.0
1070
    74
1070
     0
1000
MTEXTEND
  0
MTEXT
  5
4C2C
330
4C2A
100
AcDbEntity
  8
寸法線
  6
Continuous
100
AcDbMText
 10
856.0917613518094
 20
2523.096229277249
 30
0.0
 40
30.0
 41
17.2146
 71
     7
 72
     1
  1

 73
     1
 44
1.0
1001
ACAD
1000
MTEXTBEGIN
1070
    73
1070
     1
1070
    44
1040
1.0
1070
    74
1070
     0
1000
MTEXTEND
  0
MTEXT
  5
4C2D
330
4C2A
100
AcDbEntity
  8
寸法線
  6
Continuous
100
AcDbMText
 10
1469.354348709896
 20
2605.486470074103
 30
0.0
 40
20.0
 41
17.2146
 71
     7
 72
     1
  1

 73
     1
 44
1.0
1001
ACAD
1000
MTEXTBEGIN
1070
    73
1070
     1
1070
    44
1040
1.0
1070
    74
1070
     0
1000
MTEXTEND
  0
MTEXT
  5
4C2E
330
4C2A
100
AcDbEntity
  8
寸法線
  6
Continuous
100
AcDbMText
 10
2210.654348709896
 20
2605.486470074103
 30
0.0
 40
20.0
 41
17.2146
 71
     7
 72
     1
  1

 73
     1
 44
1.0
1001
ACAD
1000
MTEXTBEGIN
1070
    73
1070
     1
1070
    44
1040
1.0
1070
    74
1070
     0
1000
MTEXTEND
  0
MTEXT
  5
4C2F
330
4C2A
100
AcDbEntity
  8
寸法線
  6
Continuous
100
AcDbMText
 10
583.0059363526352
 20
521.5924940640631
 30
0.0
 40
20.0
 41
17.2146
 71
     7
 72
     1
  1

 73
     1
 44
1.0
1001
ACAD
1000
MTEXTBEGIN
1070
    73
1070
     1
1070
    44
1040
1.0
1070
    74
1070
     0
1000
MTEXTEND
  0
MTEXT
  5
4C30
330
4C2A
100
AcDbEntity
  8
寸法線
  6
Continuous
100
AcDbMText
 10
2781.304348709896
 20
3540.486478074103
 30
0.0
 40
20.0
 41
17.2146
 71
     7
 72
     1
  1

 73
     1
 44
1.0
1001
ACAD
1000
MTEXTBEGIN
1070
    73
1070
     1
1070
    44
1040
1.0
1070
    74
1070
     0
1000
MTEXTEND
  0
MTEXT
  5
4C31
330
4C2A
100
AcDbEntity
  8
寸法線
  6
Continuous
100
AcDbMText
 10
3741.15297079053
 20
578.2744004483788
 30
0.0
 40
20.0
 41
17.2146
 71
     7
 72
     1
  1

 73
     1
 44
1.0
1001
ACAD
1000
MTEXTBEGIN
1070
    73
1070
     1
1070
    44
1040
1.0
1070
    74
1070
     0
1000
MTEXTEND
  0
MTEXT
  5
4C32
330
4C2A
100
AcDbEntity
  8
0
100
AcDbMText
 10
5151.581318828009
 20
1002.489386287116
 30
0.0
 40
25.0
 41
224.7356
 71
     1
 72
     5
  1

 73
     1
 44
1.0
1001
ACAD
1000
MTEXTBEGIN
1070
    73
1070
     1
1070
    44
1040
1.0
1070
    74
1070
     0
1000
MTEXTEND
  0
MTEXT
  5
4C33
330
4C2A
100
AcDbEntity
  8
0
100
AcDbMText
 10
5527.061807176867
 20
867.3783972507195
 30
0.0
 40
28.0
 41
603.8372
 71
     1
 72
     5
  1

 73
     1
 44
1.0
1001
ACAD
1000
MTEXTBEGIN
1070
    73
1070
     1
1070
    44
1040
1.0
1070
    74
1070
     0
1000
MTEXTEND
  0
MTEXT
  5
4C34
330
4C2A
100
AcDbEntity
  8
寸法線
  6
Continuous
100
AcDbMText
 10
5894.988962268929
 20
2410.266081566885
 30
0.0
 40
20.0
 41
17.2146
 71
     7
 72
     1
  1

 73
     1
 44
1.0
1001
ACAD
1000
MTEXTBEGIN
1070
    73
1070
     1
1070
    44
1040
1.0
1070
    74
1070
     0
1000
MTEXTEND
  0
MTEXT
  5
4C35
330
4C2A
100
AcDbEntity
  8
寸法線
  6
Continuous
100
AcDbMText
 10
5894.988962268929
 20
2510.266081566885
 30
0.0
 40
20.0
 41
17.2146
 71
     7
 72
     1
  1

 73
     1
 44
1.0
1001
ACAD
1000
MTEXTBEGIN
1070
    73
1070
     1
1070
    44
1040
1.0
1070
    74
1070
     0
1000
MTEXTEND
  0
MTEXT
  5
4C36
330
4C2A
100
AcDbEntity
  8
寸法線
  6
Continuous
100
AcDbMText
 10
5894.988962268929
 20
2610.266081566885
 30
0.0
 40
20.0
 41
17.2146
 71
     7
 72
     1
  1

 73
     1
 44
1.0
1001
ACAD
1000
MTEXTBEGIN
1070
    73
1070
     1
1070
    44
1040
1.0
1070
    74
1070
     0
1000
MTEXTEND
  0
MTEXT
  5
4C37
330
4C2A
100
AcDbEntity
  8
寸法線
  6
Continuous
100
AcDbMText
 10
5894.988962268929
 20
2710.266081566885
 30
0.0
 40
20.0
 41
17.2146
 71
     7
 72
     1
  1

 73
     1
 44
1.0
1001
ACAD
1000
MTEXTBEGIN
1070
    73
1070
     1
1070
    44
1040
1.0
1070
    74
1070
     0
1000
MTEXTEND
  0
MTEXT
  5
4C38
330
4C2A
100
AcDbEntity
  8
寸法線
  6
Continuous
100
AcDbMText
 10
2883.024901986228
 20
1087.076194909313
 30
0.0
 40
20.0
 41
17.2146
 71
     7
 72
     1
  1

 73
     1
 44
1.0
1001
ACAD
1000
MTEXTBEGIN
1070
    73
1070
     1
1070
    44
1040
1.0
1070
    74
1070
     0
1000
MTEXTEND
  0
MTEXT
  5
4C39
330
4C2A
100
AcDbEntity
  8
寸法線
  6
Continuous
100
AcDbMText
 10
2578.198605829796
 20
2243.447329609852
 30
0.0
 40
20.0
 41
17.2146
 71
     7
 72
     1
  1

 73
     1
 44
1.0
1001
ACAD
1000
MTEXTBEGIN
1070
    73
1070
     1
1070
    44
1040
1.0
1070
    74
1070
     0
1000
MTEXTEND
  0
MTEXT
  5
4C3A
330
4C2A
100
AcDbEntity
  8
寸法線
  6
Continuous
100
AcDbMText
 10
2851.28443082897
 20
4244.951064823037
 30
0.0
 40
30.0
 41
17.2146
 71
     7
 72
     1
  1

 73
     1
 44
1.0
1001
ACAD
1000
MTEXTBEGIN
1070
    73
1070
     1
1070
    44
1040
1.0
1070
    74
1070
     0
1000
MTEXTEND
  0
MTEXT
  5
4C3B
330
4C2A
100
AcDbEntity
  8
寸法線
  6
Continuous
100
AcDbMText
 10
3464.547018187057
 20
4327.34130561989
 30
0.0
 40
20.0
 41
17.2146
 71
     7
 72
     1
  1

 73
     1
 44
1.0
1001
ACAD
1000
MTEXTBEGIN
1070
    73
1070
     1
1070
    44
1040
1.0
1070
    74
1070
     0
1000
MTEXTEND
  0
MTEXT
  5
4C3C
330
4C2A
100
AcDbEntity
  8
寸法線
  6
Continuous
100
AcDbMText
 10
4205.847018187055
 20
4327.34130561989
 30
0.0
 40
20.0
 41
17.2146
 71
     7
 72
     1
  1

 73
     1
 44
1.0
1001
ACAD
1000
MTEXTBEGIN
1070
    73
1070
     1
1070
    44
1040
1.0
1070
    74
1070
     0
1000
MTEXTEND
  0
MTEXT
  5
4C3D
330
4C2A
100
AcDbEntity
  8
寸法線
  6
Continuous
100
AcDbMText
 10
2578.198605829796
 20
2243.447329609852
 30
0.0
 40
20.0
 41
17.2146
 71
     7
 72
     1
  1

 73
     1
 44
1.0
1001
ACAD
1000
MTEXTBEGIN
1070
    73
1070
     1
1070
    44
1040
1.0
1070
    74
1070
     0
1000
MTEXTEND
  0
MTEXT
  5
4C3E
330
4C2A
100
AcDbEntity
  8
寸法線
  6
Continuous
100
AcDbMText
 10
4776.497018187057
 20
5262.341313619891
 30
0.0
 40
20.0
 41
17.2146
 71
     7
 72
     1
  1

 73
     1
 44
1.0
1001
ACAD
1000
MTEXTBEGIN
1070
    73
1070
     1
1070
    44
1040
1.0
1070
    74
1070
     0
1000
MTEXTEND
  0
MTEXT
  5
4C3F
330
4C2A
100
AcDbEntity
  8
寸法線
  6
Continuous
100
AcDbMText
 10
1592.95724332273
 20
604.2921304744615
 30
0.0
 40
20.0
 41
17.2146
 71
     7
 72
     1
  1

 73
     1
 44
1.0
1001
ACAD
1000
MTEXTBEGIN
1070
    73
1070
     1
1070
    44
1040
1.0
1070
    74
1070
     0
1000
MTEXTEND
  0
MTEXT
  5
4C40
330
4C2A
100
AcDbEntity
  8
寸法線
  6
Continuous
100
AcDbMText
 10
1866.043068321905
 20
2605.795865687647
 30
0.0
 40
30.0
 41
17.2146
 71
     7
 72
     1
  1

 73
     1
 44
1.0
1001
ACAD
1000
MTEXTBEGIN
1070
    73
1070
     1
1070
    44
1040
1.0
1070
    74
1070
     0
1000
MTEXTEND
  0
MTEXT
  5
4C41
330
4C2A
100
AcDbEntity
  8
寸法線
  6
Continuous
100
AcDbMText
 10
2479.305655679991
 20
2688.186106484501
 30
0.0
 40
20.0
 41
17.2146
 71
     7
 72
     1
  1

 73
     1
 44
1.0
1001
ACAD
1000
MTEXTBEGIN
1070
    73
1070
     1
1070
    44
1040
1.0
1070
    74
1070
     0
1000
MTEXTEND
  0
MTEXT
  5
4C42
330
4C2A
100
AcDbEntity
  8
寸法線
  6
Continuous
100
AcDbMText
 10
3220.605655679992
 20
2688.186106484502
 30
0.0
 40
20.0
 41
17.2146
 71
     7
 72
     1
  1

 73
     1
 44
1.0
1001
ACAD
1000
MTEXTBEGIN
1070
    73
1070
     1
1070
    44
1040
1.0
1070
    74
1070
     0
1000
MTEXTEND
  0
MTEXT
  5
4C43
330
4C2A
100
AcDbEntity
  8
寸法線
  6
Continuous
100
AcDbMText
 10
1592.95724332273
 20
604.2921304744615
 30
0.0
 40
20.0
 41
17.2146
 71
     7
 72
     1
  1

 73
     1
 44
1.0
1001
ACAD
1000
MTEXTBEGIN
1070
    73
1070
     1
1070
    44
1040
1.0
1070
    74
1070
     0
1000
MTEXTEND
  0
MTEXT
  5
4C44
330
4C2A
100
AcDbEntity
  8
寸法線
  6
Continuous
100
AcDbMText
 10
3791.255655679992
 20
3623.186114484501
 30
0.0
 40
20.0
 41
17.2146
 71
     7
 72
     1
  1

 73
     1
 44
1.0
1001
ACAD
1000
MTEXTBEGIN
1070
    73
1070
     1
1070
    44
1040
1.0
1070
    74
1070
     0
1000
MTEXTEND
  0
MTEXT
  5
4C45
330
4C2A
100
AcDbEntity
  8
寸法線
  6
Continuous
100
AcDbMText
 10
4300.649383558893
 20
-1289.16262376871
 30
0.0
 40
20.0
 41
17.2146
 71
     7
 72
     1
  1

 73
     1
 44
1.0
1001
ACAD
1000
MTEXTBEGIN
1070
    73
1070
     1
1070
    44
1040
1.0
1070
    74
1070
     0
1000
MTEXTEND
  0
MTEXT
  5
4C46
330
4C2A
100
AcDbEntity
  8
寸法線
  6
Continuous
100
AcDbMText
 10
4573.735208558066
 20
712.3411114444756
 30
0.0
 40
30.0
 41
17.2146
 71
     7
 72
     1
  1

 73
     1
 44
1.0
1001
ACAD
1000
MTEXTBEGIN
1070
    73
1070
     1
1070
    44
1040
1.0
1070
    74
1070
     0
1000
MTEXTEND
  0
MTEXT
  5
4C47
330
4C2A
100
AcDbEntity
  8
寸法線
  6
Continuous
100
AcDbMText
 10
5186.997795916153
 20
794.7313522413297
 30
0.0
 40
20.0
 41
17.2146
 71
     7
 72
     1
  1

 73
     1
 44
1.0
1001
ACAD
1000
MTEXTBEGIN
1070
    73
1070
     1
1070
    44
1040
1.0
1070
    74
1070
     0
1000
MTEXTEND
  0
MTEXT
  5
4C48
330
4C2A
100
AcDbEntity
  8
寸法線
  6
Continuous
100
AcDbMText
 10
5928.297795916154
 20
794.7313522413302
 30
0.0
 40
20.0
 41
17.2146
 71
     7
 72
     1
  1

 73
     1
 44
1.0
1001
ACAD
1000
MTEXTBEGIN
1070
    73
1070
     1
1070
    44
1040
1.0
1070
    74
1070
     0
1000
MTEXTEND
  0
MTEXT
  5
4C49
330
4C2A
100
AcDbEntity
  8
寸法線
  6
Continuous
100
AcDbMText
 10
4300.649383558893
 20
-1289.16262376871
 30
0.0
 40
20.0
 41
17.2146
 71
     7
 72
     1
  1

 73
     1
 44
1.0
1001
ACAD
1000
MTEXTBEGIN
1070
    73
1070
     1
1070
    44
1040
1.0
1070
    74
1070
     0
1000
MTEXTEND
  0
MTEXT
  5
4C4A
330
4C2A
100
AcDbEntity
  8
寸法線
  6
Continuous
100
AcDbMText
 10
6498.947795916153
 20
1729.73136024133
 30
0.0
 40
20.0
 41
17.2146
 71
     7
 72
     1
  1

 73
     1
 44
1.0
1001
ACAD
1000
MTEXTBEGIN
1070
    73
1070
     1
1070
    44
1040
1.0
1070
    74
1070
     0
1000
MTEXTEND
  0
MTEXT
  5
4C4B
330
4C2A
100
AcDbEntity
  8
寸法線
  6
Continuous
100
AcDbMText
 10
5059.947795916153
 20
844.7313522413297
 30
0.0
 40
20.0
 41
17.2146
 71
     7
 72
     1
  1

 73
     1
 44
1.0
1001
ACAD
1000
MTEXTBEGIN
1070
    73
1070
     1
1070
    44
1040
1.0
1070
    74
1070
     0
1000
MTEXTEND
  0
MTEXT
  5
4C4C
330
4C2A
100
AcDbEntity
  8
寸法線
  6
Continuous
100
AcDbMText
 10
3053.5176116574
 20
1130.518082031741
 30
0.0
 40
20.0
 41
17.2146
 71
     7
 72
     1
  1

 11
-1.0
 21
0.0000000000000001
 31
0.0
 73
     1
 44
1.0
1001
ACAD
1000
MTEXTBEGIN
1070
    73
1070
     1
1070
    44
1040
1.0
1070
    74
1070
     0
1000
MTEXTEND
  0
MTEXT
  5
4C4D
330
4C2A
100
AcDbEntity
  8
寸法線
  6
Continuous
100
AcDbMText
 10
3089.803071591377
 20
1977.815880727748
 30
0.0
 40
20.0
 41
17.2146
 71
     7
 72
     1
  1

 73
     1
 44
1.0
1001
ACAD
1000
MTEXTBEGIN
1070
    73
1070
     1
1070
    44
1040
1.0
1070
    74
1070
     0
1000
MTEXTEND
  0
MTEXT
  5
4C4E
330
4C2A
100
AcDbEntity
  8
寸法線
  6
Continuous
100
AcDbMText
 10
3362.888896590551
 20
3979.319615940934
 30
0.0
 40
30.0
 41
17.2146
 71
     7
 72
     1
  1

 73
     1
 44
1.0
1001
ACAD
1000
MTEXTBEGIN
1070
    73
1070
     1
1070
    44
1040
1.0
1070
    74
1070
     0
1000
MTEXTEND
  0
MTEXT
  5
4C4F
330
4C2A
100
AcDbEntity
  8
寸法線
  6
Continuous
100
AcDbMText
 10
3976.151483948637
 20
4061.709856737787
 30
0.0
 40
20.0
 41
17.2146
 71
     7
 72
     1
  1

 73
     1
 44
1.0
1001
ACAD
1000
MTEXTBEGIN
1070
    73
1070
     1
1070
    44
1040
1.0
1070
    74
1070
     0
1000
MTEXTEND
  0
MTEXT
  5
4C50
330
4C2A
100
AcDbEntity
  8
寸法線
  6
Continuous
100
AcDbMText
 10
4717.451483948638
 20
4061.709856737787
 30
0.0
 40
20.0
 41
17.2146
 71
     7
 72
     1
  1

 73
     1
 44
1.0
1001
ACAD
1000
MTEXTBEGIN
1070
    73
1070
     1
1070
    44
1040
1.0
1070
    74
1070
     0
1000
MTEXTEND
  0
MTEXT
  5
4C51
330
4C2A
100
AcDbEntity
  8
寸法線
  6
Continuous
100
AcDbMText
 10
3089.803071591377
 20
1977.815880727748
 30
0.0
 40
20.0
 41
17.2146
 71
     7
 72
     1
  1

 73
     1
 44
1.0
1001
ACAD
1000
MTEXTBEGIN
1070
    73
1070
     1
1070
    44
1040
1.0
1070
    74
1070
     0
1000
MTEXTEND
  0
MTEXT
  5
4C52
330
4C2A
100
AcDbEntity
  8
寸法線
  6
Continuous
100
AcDbMText
 10
5288.101483948636
 20
4996.709864737788
 30
0.0
 40
20.0
 41
17.2146
 71
     7
 72
     1
  1

 73
     1
 44
1.0
1001
ACAD
1000
MTEXTBEGIN
1070
    73
1070
     1
1070
    44
1040
1.0
1070
    74
1070
     0
1000
MTEXTEND
  0
MTEXT
  5
4C53
330
4C2A
100
AcDbEntity
  8
寸法線
  6
Continuous
100
AcDbMText
 10
4426.343968106449
 20
1013.789218806169
 30
0.0
 40
16.0
 41
13.77168
 71
     7
 72
     1
  1

 11
-1.0
 21
0.0000000000000001
 31
0.0
 73
     1
 44
1.0
1001
ACAD
1000
MTEXTBEGIN
1070
    73
1070
     1
1070
    44
1040
1.0
1070
    74
1070
     0
1000
MTEXTEND
  0
MTEXT
  5
4C54
330
4C2A
100
AcDbEntity
  8
寸法線
  6
Continuous
100
AcDbMText
 10
4207.875308107109
 20
-587.4137693643795
 30
0.0
 40
24.0
 41
13.77168
 71
     7
 72
     1
  1

 11
-1.0
 21
0.0000000000000001
 31
0.0
 73
     1
 44
1.0
1001
ACAD
1000
MTEXTBEGIN
1070
    73
1070
     1
1070
    44
1040
1.0
1070
    74
1070
     0
1000
MTEXTEND
  0
MTEXT
  5
4C55
330
4C2A
100
AcDbEntity
  8
寸法線
  6
Continuous
100
AcDbMText
 10
3717.265238220642
 20
-653.3259620018627
 30
0.0
 40
16.0
 41
13.77168
 71
     7
 72
     1
  1

 11
-1.0
 21
0.0000000000000001
 31
0.0
 73
     1
 44
1.0
1001
ACAD
1000
MTEXTBEGIN
1070
    73
1070
     1
1070
    44
1040
1.0
1070
    74
1070
     0
1000
MTEXTEND
  0
MTEXT
  5
4C56
330
4C2A
100
AcDbEntity
  8
寸法線
  6
Continuous
100
AcDbMText
 10
3124.225238220641
 20
-653.325962001863
 30
0.0
 40
16.0
 41
13.77168
 71
     7
 72
     1
  1

 11
-1.0
 21
0.0000000000000001
 31
0.0
 73
     1
 44
1.0
1001
ACAD
1000
MTEXTBEGIN
1070
    73
1070
     1
1070
    44
1040
1.0
1070
    74
1070
     0
1000
MTEXTEND
  0
MTEXT
  5
4C57
330
4C2A
100
AcDbEntity
  8
寸法線
  6
Continuous
100
AcDbMText
 10
4426.343968106449
 20
1013.789218806169
 30
0.0
 40
16.0
 41
13.77168
 71
     7
 72
     1
  1

 11
-1.0
 21
0.0000000000000001
 31
0.0
 73
     1
 44
1.0
1001
ACAD
1000
MTEXTBEGIN
1070
    73
1070
     1
1070
    44
1040
1.0
1070
    74
1070
     0
1000
MTEXTEND
  0
MTEXT
  5
4C58
330
4C2A
100
AcDbEntity
  8
寸法線
  6
Continuous
100
AcDbMText
 10
2667.705238220639
 20
-1401.325968401862
 30
0.0
 40
16.0
 41
13.77168
 71
     7
 72
     1
  1

 11
-1.0
 21
0.0000000000000001
 31
0.0
 73
     1
 44
1.0
1001
ACAD
1000
MTEXTBEGIN
1070
    73
1070
     1
1070
    44
1040
1.0
1070
    74
1070
     0
1000
MTEXTEND
  0
MTEXT
  5
4C59
330
4C2A
100
AcDbEntity
  8
寸法線
  6
Continuous
100
AcDbMText
 10
3093.823558074577
 20
372.7931550253418
 30
0.0
 40
16.0
 41
13.77168
 71
     7
 72
     1
  1

 11
-1.0
 21
0.0000000000000001
 31
0.0
 73
     1
 44
1.0
1001
ACAD
1000
MTEXTBEGIN
1070
    73
1070
     1
1070
    44
1040
1.0
1070
    74
1070
     0
1000
MTEXTEND
  0
MTEXT
  5
4C5A
330
4C2A
100
AcDbEntity
  8
寸法線
  6
Continuous
100
AcDbMText
 10
2875.354898075238
 20
-1228.409833145207
 30
0.0
 40
24.0
 41
13.77168
 71
     7
 72
     1
  1

 11
-1.0
 21
0.0000000000000001
 31
0.0
 73
     1
 44
1.0
1001
ACAD
1000
MTEXTBEGIN
1070
    73
1070
     1
1070
    44
1040
1.0
1070
    74
1070
     0
1000
MTEXTEND
  0
MTEXT
  5
4C5B
330
4C2A
100
AcDbEntity
  8
寸法線
  6
Continuous
100
AcDbMText
 10
2384.744828188768
 20
-1294.32202578269
 30
0.0
 40
16.0
 41
13.77168
 71
     7
 72
     1
  1

 11
-1.0
 21
0.0000000000000001
 31
0.0
 73
     1
 44
1.0
1001
ACAD
1000
MTEXTBEGIN
1070
    73
1070
     1
1070
    44
1040
1.0
1070
    74
1070
     0
1000
MTEXTEND
  0
MTEXT
  5
4C5C
330
4C2A
100
AcDbEntity
  8
寸法線
  6
Continuous
100
AcDbMText
 10
1791.704828188768
 20
-1294.32202578269
 30
0.0
 40
16.0
 41
13.77168
 71
     7
 72
     1
  1

 11
-1.0
 21
0.0000000000000001
 31
0.0
 73
     1
 44
1.0
1001
ACAD
1000
MTEXTBEGIN
1070
    73
1070
     1
1070
    44
1040
1.0
1070
    74
1070
     0
1000
MTEXTEND
  0
MTEXT
  5
4C5D
330
4C2A
100
AcDbEntity
  8
寸法線
  6
Continuous
100
AcDbMText
 10
3093.823558074577
 20
372.7931550253418
 30
0.0
 40
16.0
 41
13.77168
 71
     7
 72
     1
  1

 11
-1.0
 21
0.0000000000000001
 31
0.0
 73
     1
 44
1.0
1001
ACAD
1000
MTEXTBEGIN
1070
    73
1070
     1
1070
    44
1040
1.0
1070
    74
1070
     0
1000
MTEXTEND
  0
MTEXT
  5
4C5E
330
4C2A
100
AcDbEntity
  8
寸法線
  6
Continuous
100
AcDbMText
 10
1335.184828188768
 20
-2042.32203218269
 30
0.0
 40
16.0
 41
13.77168
 71
     7
 72
     1
  1

 11
-1.0
 21
0.0000000000000001
 31
0.0
 73
     1
 44
1.0
1001
ACAD
1000
MTEXTBEGIN
1070
    73
1070
     1
1070
    44
1040
1.0
1070
    74
1070
     0
1000
MTEXTEND
  0
MTEXT
  5
4C5F
330
4C2A
100
AcDbEntity
  8
寸法線
  6
Continuous
100
AcDbMText
 10
4086.080425293165
 20
-1107.491654710555
 30
0.0
 40
20.0
 41
17.2146
 71
     7
 72
     1
  1

 73
     1
 44
1.0
1001
ACAD
1000
MTEXTBEGIN
1070
    73
1070
     1
1070
    44
1040
1.0
1070
    74
1070
     0
1000
MTEXTEND
  0
MTEXT
  5
4C60
330
4C2A
100
AcDbEntity
  8
寸法線
  6
Continuous
100
AcDbMText
 10
4359.166250292341
 20
894.0120805026309
 30
0.0
 40
30.0
 41
17.2146
 71
     7
 72
     1
  1

 73
     1
 44
1.0
1001
ACAD
1000
MTEXTBEGIN
1070
    73
1070
     1
1070
    44
1040
1.0
1070
    74
1070
     0
1000
MTEXTEND
  0
MTEXT
  5
4C61
330
4C2A
100
AcDbEntity
  8
寸法線
  6
Continuous
100
AcDbMText
 10
4972.428837650427
 20
976.402321299485
 30
0.0
 40
20.0
 41
17.2146
 71
     7
 72
     1
  1

 73
     1
 44
1.0
1001
ACAD
1000
MTEXTBEGIN
1070
    73
1070
     1
1070
    44
1040
1.0
1070
    74
1070
     0
1000
MTEXTEND
  0
MTEXT
  5
4C62
330
4C2A
100
AcDbEntity
  8
寸法線
  6
Continuous
100
AcDbMText
 10
5713.728837650426
 20
976.4023212994853
 30
0.0
 40
20.0
 41
17.2146
 71
     7
 72
     1
  1

 73
     1
 44
1.0
1001
ACAD
1000
MTEXTBEGIN
1070
    73
1070
     1
1070
    44
1040
1.0
1070
    74
1070
     0
1000
MTEXTEND
  0
MTEXT
  5
4C63
330
4C2A
100
AcDbEntity
  8
寸法線
  6
Continuous
100
AcDbMText
 10
4086.080425293165
 20
-1107.491654710555
 30
0.0
 40
20.0
 41
17.2146
 71
     7
 72
     1
  1

 73
     1
 44
1.0
1001
ACAD
1000
MTEXTBEGIN
1070
    73
1070
     1
1070
    44
1040
1.0
1070
    74
1070
     0
1000
MTEXTEND
  0
MTEXT
  5
4C64
330
4C2A
100
AcDbEntity
  8
寸法線
  6
Continuous
100
AcDbMText
 10
6284.378837650426
 20
1911.402329299485
 30
0.0
 40
20.0
 41
17.2146
 71
     7
 72
     1
  1

 73
     1
 44
1.0
1001
ACAD
1000
MTEXTBEGIN
1070
    73
1070
     1
1070
    44
1040
1.0
1070
    74
1070
     0
1000
MTEXTEND
  0
MTEXT
  5
4C65
330
4C2A
100
AcDbEntity
  8
寸法線
  6
Continuous
100
AcDbMText
 10
3186.410139226194
 20
1938.128935928397
 30
0.0
 40
20.0
 41
17.2146
 71
     7
 72
     1
  1

 73
     1
 44
1.0
1001
ACAD
1000
MTEXTBEGIN
1070
    73
1070
     1
1070
    44
1040
1.0
1070
    74
1070
     0
1000
MTEXTEND
  0
MTEXT
  5
4C66
330
4C2A
100
AcDbEntity
  8
寸法線
  6
Continuous
100
AcDbMText
 10
3459.495964225368
 20
3939.632671141584
 30
0.0
 40
30.0
 41
17.2146
 71
     7
 72
     1
  1

 73
     1
 44
1.0
1001
ACAD
1000
MTEXTBEGIN
1070
    73
1070
     1
1070
    44
1040
1.0
1070
    74
1070
     0
1000
MTEXTEND
  0
MTEXT
  5
4C67
330
4C2A
100
AcDbEntity
  8
寸法線
  6
Continuous
100
AcDbMText
 10
4072.758551583453
 20
4022.022911938437
 30
0.0
 40
20.0
 41
17.2146
 71
     7
 72
     1
  1

 73
     1
 44
1.0
1001
ACAD
1000
MTEXTBEGIN
1070
    73
1070
     1
1070
    44
1040
1.0
1070
    74
1070
     0
1000
MTEXTEND
  0
MTEXT
  5
4C68
330
4C2A
100
AcDbEntity
  8
寸法線
  6
Continuous
100
AcDbMText
 10
4814.058551583453
 20
4022.022911938438
 30
0.0
 40
20.0
 41
17.2146
 71
     7
 72
     1
  1

 73
     1
 44
1.0
1001
ACAD
1000
MTEXTBEGIN
1070
    73
1070
     1
1070
    44
1040
1.0
1070
    74
1070
     0
1000
MTEXTEND
  0
MTEXT
  5
4C69
330
4C2A
100
AcDbEntity
  8
寸法線
  6
Continuous
100
AcDbMText
 10
3186.410139226194
 20
1938.128935928397
 30
0.0
 40
20.0
 41
17.2146
 71
     7
 72
     1
  1

 73
     1
 44
1.0
1001
ACAD
1000
MTEXTBEGIN
1070
    73
1070
     1
1070
    44
1040
1.0
1070
    74
1070
     0
1000
MTEXTEND
  0
MTEXT
  5
4C6A
330
4C2A
100
AcDbEntity
  8
寸法線
  6
Continuous
100
AcDbMText
 10
5384.708551583454
 20
4957.022919938436
 30
0.0
 40
20.0
 41
17.2146
 71
     7
 72
     1
  1

 73
     1
 44
1.0
1001
ACAD
1000
MTEXTBEGIN
1070
    73
1070
     1
1070
    44
1040
1.0
1070
    74
1070
     0
1000
MTEXTEND
  0
MTEXT
  5
4C6B
330
4C2A
100
AcDbEntity
  8
寸法線
  6
Continuous
100
AcDbMText
 10
2920.391848233502
 20
2236.44982073732
 30
0.0
 40
20.0
 41
17.2146
 71
     7
 72
     1
  1

 73
     1
 44
1.0
1001
ACAD
1000
MTEXTBEGIN
1070
    73
1070
     1
1070
    44
1040
1.0
1070
    74
1070
     0
1000
MTEXTEND
  0
MTEXT
  5
4C6C
330
4C2A
100
AcDbEntity
  8
寸法線
  6
Continuous
100
AcDbMText
 10
3193.477673232676
 20
4237.953555950506
 30
0.0
 40
30.0
 41
17.2146
 71
     7
 72
     1
  1

 73
     1
 44
1.0
1001
ACAD
1000
MTEXTBEGIN
1070
    73
1070
     1
1070
    44
1040
1.0
1070
    74
1070
     0
1000
MTEXTEND
  0
MTEXT
  5
4C6D
330
4C2A
100
AcDbEntity
  8
寸法線
  6
Continuous
100
AcDbMText
 10
2458.218859081994
 20
4210.386207102769
 30
0.0
 40
20.0
 41
17.2146
 71
     7
 72
     1
  1

 73
     1
 44
1.0
1001
ACAD
1000
MTEXTBEGIN
1070
    73
1070
     1
1070
    44
1040
1.0
1070
    74
1070
     0
1000
MTEXTEND
  0
MTEXT
  5
4C6E
330
4C2A
100
AcDbEntity
  8
寸法線
  6
Continuous
100
AcDbMText
 10
2920.391848233502
 20
2218.94982073732
 30
0.0
 40
20.0
 41
17.2146
 71
     7
 72
     1
  1

 73
     1
 44
1.0
1001
ACAD
1000
MTEXTBEGIN
1070
    73
1070
     1
1070
    44
1040
1.0
1070
    74
1070
     0
1000
MTEXTEND
  0
MTEXT
  5
4C6F
330
4C2A
100
AcDbEntity
  8
寸法線
  6
Continuous
100
AcDbMText
 10
3193.477673232676
 20
4220.453555950506
 30
0.0
 40
30.0
 41
17.2146
 71
     7
 72
     1
  1

 73
     1
 44
1.0
1001
ACAD
1000
MTEXTBEGIN
1070
    73
1070
     1
1070
    44
1040
1.0
1070
    74
1070
     0
1000
MTEXTEND
  0
MTEXT
  5
4C70
330
4C2A
100
AcDbEntity
  8
寸法線
  6
Continuous
100
AcDbMText
 10
2458.218859081994
 20
4192.886207102769
 30
0.0
 40
20.0
 41
17.2146
 71
     7
 72
     1
  1

 73
     1
 44
1.0
1001
ACAD
1000
MTEXTBEGIN
1070
    73
1070
     1
1070
    44
1040
1.0
1070
    74
1070
     0
1000
MTEXTEND
  0
MTEXT
  5
4C71
330
4C2A
100
AcDbEntity
  8
寸法線
  6
Continuous
100
AcDbMText
 10
2920.391848233502
 20
2168.94982073732
 30
0.0
 40
20.0
 41
17.2146
 71
     7
 72
     1
  1

 73
     1
 44
1.0
1001
ACAD
1000
MTEXTBEGIN
1070
    73
1070
     1
1070
    44
1040
1.0
1070
    74
1070
     0
1000
MTEXTEND
  0
MTEXT
  5
4C72
330
4C2A
100
AcDbEntity
  8
寸法線
  6
Continuous
100
AcDbMText
 10
3193.477673232676
 20
4170.453555950506
 30
0.0
 40
30.0
 41
17.2146
 71
     7
 72
     1
  1

 73
     1
 44
1.0
1001
ACAD
1000
MTEXTBEGIN
1070
    73
1070
     1
1070
    44
1040
1.0
1070
    74
1070
     0
1000
MTEXTEND
  0
MTEXT
  5
4C73
330
4C2A
100
AcDbEntity
  8
寸法線
  6
Continuous
100
AcDbMText
 10
2458.218859081994
 20
4142.886207102768
 30
0.0
 40
20.0
 41
17.2146
 71
     7
 72
     1
  1

 73
     1
 44
1.0
1001
ACAD
1000
MTEXTBEGIN
1070
    73
1070
     1
1070
    44
1040
1.0
1070
    74
1070
     0
1000
MTEXTEND
  0
MTEXT
  5
4C74
330
4C2A
100
AcDbEntity
  8
寸法線
  6
Continuous
100
AcDbMText
 10
2920.391848233502
 20
2118.94982073732
 30
0.0
 40
20.0
 41
17.2146
 71
     7
 72
     1
  1

 73
     1
 44
1.0
1001
ACAD
1000
MTEXTBEGIN
1070
    73
1070
     1
1070
    44
1040
1.0
1070
    74
1070
     0
1000
MTEXTEND
  0
MTEXT
  5
4C75
330
4C2A
100
AcDbEntity
  8
寸法線
  6
Continuous
100
AcDbMText
 10
3193.477673232676
 20
4120.453555950506
 30
0.0
 40
30.0
 41
17.2146
 71
     7
 72
     1
  1

 73
     1
 44
1.0
1001
ACAD
1000
MTEXTBEGIN
1070
    73
1070
     1
1070
    44
1040
1.0
1070
    74
1070
     0
1000
MTEXTEND
  0
MTEXT
  5
4C76
330
4C2A
100
AcDbEntity
  8
寸法線
  6
Continuous
100
AcDbMText
 10
2458.218859081994
 20
4092.886207102767
 30
0.0
 40
20.0
 41
17.2146
 71
     7
 72
     1
  1

 73
     1
 44
1.0
1001
ACAD
1000
MTEXTBEGIN
1070
    73
1070
     1
1070
    44
1040
1.0
1070
    74
1070
     0
1000
MTEXTEND
  0
MTEXT
  5
4C77
330
4C2A
100
AcDbEntity
  8
寸法線
  6
Continuous
100
AcDbMText
 10
2920.391848233502
 20
2068.94982073732
 30
0.0
 40
20.0
 41
17.2146
 71
     7
 72
     1
  1

 73
     1
 44
1.0
1001
ACAD
1000
MTEXTBEGIN
1070
    73
1070
     1
1070
    44
1040
1.0
1070
    74
1070
     0
1000
MTEXTEND
  0
MTEXT
  5
4C78
330
4C2A
100
AcDbEntity
  8
寸法線
  6
Continuous
100
AcDbMText
 10
3193.477673232676
 20
4070.453555950504
 30
0.0
 40
30.0
 41
17.2146
 71
     7
 72
     1
  1

 73
     1
 44
1.0
1001
ACAD
1000
MTEXTBEGIN
1070
    73
1070
     1
1070
    44
1040
1.0
1070
    74
1070
     0
1000
MTEXTEND
  0
MTEXT
  5
4C79
330
4C2A
100
AcDbEntity
  8
寸法線
  6
Continuous
100
AcDbMText
 10
2458.218859081994
 20
4042.886207102768
 30
0.0
 40
20.0
 41
17.2146
 71
     7
 72
     1
  1

 73
     1
 44
1.0
1001
ACAD
1000
MTEXTBEGIN
1070
    73
1070
     1
1070
    44
1040
1.0
1070
    74
1070
     0
1000
MTEXTEND
  0
MTEXT
  5
4C7A
330
4C2A
100
AcDbEntity
  8
寸法線
  6
Continuous
100
AcDbMText
 10
2920.391848233502
 20
2018.94982073732
 30
0.0
 40
20.0
 41
17.2146
 71
     7
 72
     1
  1

 73
     1
 44
1.0
1001
ACAD
1000
MTEXTBEGIN
1070
    73
1070
     1
1070
    44
1040
1.0
1070
    74
1070
     0
1000
MTEXTEND
  0
MTEXT
  5
4C7B
330
4C2A
100
AcDbEntity
  8
寸法線
  6
Continuous
100
AcDbMText
 10
3193.477673232676
 20
4020.453555950505
 30
0.0
 40
30.0
 41
17.2146
 71
     7
 72
     1
  1

 73
     1
 44
1.0
1001
ACAD
1000
MTEXTBEGIN
1070
    73
1070
     1
1070
    44
1040
1.0
1070
    74
1070
     0
1000
MTEXTEND
  0
MTEXT
  5
4C7C
330
4C2A
100
AcDbEntity
  8
寸法線
  6
Continuous
100
AcDbMText
 10
2458.218859081994
 20
3992.886207102769
 30
0.0
 40
20.0
 41
17.2146
 71
     7
 72
     1
  1

 73
     1
 44
1.0
1001
ACAD
1000
MTEXTBEGIN
1070
    73
1070
     1
1070
    44
1040
1.0
1070
    74
1070
     0
1000
MTEXTEND
  0
MTEXT
  5
4C7D
330
4C2A
100
AcDbEntity
  8
寸法線
  6
Continuous
100
AcDbMText
 10
2920.391848233502
 20
1968.94982073732
 30
0.0
 40
20.0
 41
17.2146
 71
     7
 72
     1
  1

 73
     1
 44
1.0
1001
ACAD
1000
MTEXTBEGIN
1070
    73
1070
     1
1070
    44
1040
1.0
1070
    74
1070
     0
1000
MTEXTEND
  0
MTEXT
  5
4C7E
330
4C2A
100
AcDbEntity
  8
寸法線
  6
Continuous
100
AcDbMText
 10
3193.477673232676
 20
3970.453555950506
 30
0.0
 40
30.0
 41
17.2146
 71
     7
 72
     1
  1

 73
     1
 44
1.0
1001
ACAD
1000
MTEXTBEGIN
1070
    73
1070
     1
1070
    44
1040
1.0
1070
    74
1070
     0
1000
MTEXTEND
  0
MTEXT
  5
4C7F
330
4C2A
100
AcDbEntity
  8
寸法線
  6
Continuous
100
AcDbMText
 10
2458.218859081994
 20
3942.88620710277
 30
0.0
 40
20.0
 41
17.2146
 71
     7
 72
     1
  1

 73
     1
 44
1.0
1001
ACAD
1000
MTEXTBEGIN
1070
    73
1070
     1
1070
    44
1040
1.0
1070
    74
1070
     0
1000
MTEXTEND
  0
MTEXT
  5
4C80
330
4C2A
100
AcDbEntity
  8
寸法線
  6
Continuous
100
AcDbMText
 10
2920.391848233502
 20
1918.94982073732
 30
0.0
 40
20.0
 41
17.2146
 71
     7
 72
     1
  1

 73
     1
 44
1.0
1001
ACAD
1000
MTEXTBEGIN
1070
    73
1070
     1
1070
    44
1040
1.0
1070
    74
1070
     0
1000
MTEXTEND
  0
MTEXT
  5
4C81
330
4C2A
100
AcDbEntity
  8
寸法線
  6
Continuous
100
AcDbMText
 10
3193.477673232676
 20
3920.453555950505
 30
0.0
 40
30.0
 41
17.2146
 71
     7
 72
     1
  1

 73
     1
 44
1.0
1001
ACAD
1000
MTEXTBEGIN
1070
    73
1070
     1
1070
    44
1040
1.0
1070
    74
1070
     0
1000
MTEXTEND
  0
MTEXT
  5
4C82
330
4C2A
100
AcDbEntity
  8
寸法線
  6
Continuous
100
AcDbMText
 10
2458.218859081994
 20
3892.886207102769
 30
0.0
 40
20.0
 41
17.2146
 71
     7
 72
     1
  1

 73
     1
 44
1.0
1001
ACAD
1000
MTEXTBEGIN
1070
    73
1070
     1
1070
    44
1040
1.0
1070
    74
1070
     0
1000
MTEXTEND
  0
MTEXT
  5
4C83
330
4C2A
100
AcDbEntity
  8
寸法線
  6
Continuous
100
AcDbMText
 10
2228.395000714048
 20
952.46137955193
 30
0.0
 40
20.0
 41
17.2146
 71
     7
 72
     1
  1

 73
     1
 44
1.0
1001
ACAD
1000
MTEXTBEGIN
1070
    73
1070
     1
1070
    44
1040
1.0
1070
    74
1070
     0
1000
MTEXTEND
  0
MTEXT
  5
4C84
330
4C2A
100
AcDbEntity
  8
寸法線
  6
Continuous
100
AcDbMText
 10
2501.480825713223
 20
2953.965114765117
 30
0.0
 40
30.0
 41
17.2146
 71
     7
 72
     1
  1

 73
     1
 44
1.0
1001
ACAD
1000
MTEXTBEGIN
1070
    73
1070
     1
1070
    44
1040
1.0
1070
    74
1070
     0
1000
MTEXTEND
  0
MTEXT
  5
4C85
330
4C2A
100
AcDbEntity
  8
寸法線
  6
Continuous
100
AcDbMText
 10
3114.743413071308
 20
3036.35535556197
 30
0.0
 40
20.0
 41
17.2146
 71
     7
 72
     1
  1

 73
     1
 44
1.0
1001
ACAD
1000
MTEXTBEGIN
1070
    73
1070
     1
1070
    44
1040
1.0
1070
    74
1070
     0
1000
MTEXTEND
  0
MTEXT
  5
4C86
330
4C2A
100
AcDbEntity
  8
寸法線
  6
Continuous
100
AcDbMText
 10
3856.043413071308
 20
3036.35535556197
 30
0.0
 40
20.0
 41
17.2146
 71
     7
 72
     1
  1

 73
     1
 44
1.0
1001
ACAD
1000
MTEXTBEGIN
1070
    73
1070
     1
1070
    44
1040
1.0
1070
    74
1070
     0
1000
MTEXTEND
  0
MTEXT
  5
4C87
330
4C2A
100
AcDbEntity
  8
寸法線
  6
Continuous
100
AcDbMText
 10
2228.395000714048
 20
952.46137955193
 30
0.0
 40
20.0
 41
17.2146
 71
     7
 72
     1
  1

 73
     1
 44
1.0
1001
ACAD
1000
MTEXTBEGIN
1070
    73
1070
     1
1070
    44
1040
1.0
1070
    74
1070
     0
1000
MTEXTEND
  0
MTEXT
  5
4C88
330
4C2A
100
AcDbEntity
  8
寸法線
  6
Continuous
100
AcDbMText
 10
4426.693413071308
 20
3971.355363561971
 30
0.0
 40
20.0
 41
17.2146
 71
     7
 72
     1
  1

 73
     1
 44
1.0
1001
ACAD
1000
MTEXTBEGIN
1070
    73
1070
     1
1070
    44
1040
1.0
1070
    74
1070
     0
1000
MTEXTEND
  0
MTEXT
  5
4C89
330
4C2A
100
AcDbEntity
  8
寸法線
  6
Continuous
100
AcDbMText
 10
3463.059867630838
 20
842.0378712881234
 30
0.0
 40
20.0
 41
17.2146
 71
     7
 72
     1
  1

 73
     1
 44
1.0
1001
ACAD
1000
MTEXTBEGIN
1070
    73
1070
     1
1070
    44
1040
1.0
1070
    74
1070
     0
1000
MTEXTEND
  0
MTEXT
  5
4C8A
330
4C2A
100
AcDbEntity
  8
寸法線
  6
Continuous
100
AcDbMText
 10
3374.758147225323
 20
1986.244694015954
 30
0.0
 40
20.0
 41
17.2146
 71
     7
 72
     1
  1

 73
     1
 44
1.0
1001
ACAD
1000
MTEXTBEGIN
1070
    73
1070
     1
1070
    44
1040
1.0
1070
    74
1070
     0
1000
MTEXTEND
  0
MTEXT
  5
4C8B
330
4C2A
100
AcDbEntity
  8
寸法線
  6
Continuous
100
AcDbMText
 10
3647.843972224499
 20
3987.74842922914
 30
0.0
 40
30.0
 41
17.2146
 71
     7
 72
     1
  1

 73
     1
 44
1.0
1001
ACAD
1000
MTEXTBEGIN
1070
    73
1070
     1
1070
    44
1040
1.0
1070
    74
1070
     0
1000
MTEXTEND
  0
MTEXT
  5
4C8C
330
4C2A
100
AcDbEntity
  8
寸法線
  6
Continuous
100
AcDbMText
 10
4261.106559582584
 20
4070.138670025992
 30
0.0
 40
20.0
 41
17.2146
 71
     7
 72
     1
  1

 73
     1
 44
1.0
1001
ACAD
1000
MTEXTBEGIN
1070
    73
1070
     1
1070
    44
1040
1.0
1070
    74
1070
     0
1000
MTEXTEND
  0
MTEXT
  5
4C8D
330
4C2A
100
AcDbEntity
  8
寸法線
  6
Continuous
100
AcDbMText
 10
5002.406559582585
 20
4070.138670025992
 30
0.0
 40
20.0
 41
17.2146
 71
     7
 72
     1
  1

 73
     1
 44
1.0
1001
ACAD
1000
MTEXTBEGIN
1070
    73
1070
     1
1070
    44
1040
1.0
1070
    74
1070
     0
1000
MTEXTEND
  0
MTEXT
  5
4C8E
330
4C2A
100
AcDbEntity
  8
寸法線
  6
Continuous
100
AcDbMText
 10
3374.758147225323
 20
1986.244694015954
 30
0.0
 40
20.0
 41
17.2146
 71
     7
 72
     1
  1

 73
     1
 44
1.0
1001
ACAD
1000
MTEXTBEGIN
1070
    73
1070
     1
1070
    44
1040
1.0
1070
    74
1070
     0
1000
MTEXTEND
  0
MTEXT
  5
4C8F
330
4C2A
100
AcDbEntity
  8
寸法線
  6
Continuous
100
AcDbMText
 10
5573.056559582585
 20
5005.138678025994
 30
0.0
 40
20.0
 41
17.2146
 71
     7
 72
     1
  1

 73
     1
 44
1.0
1001
ACAD
1000
MTEXTBEGIN
1070
    73
1070
     1
1070
    44
1040
1.0
1070
    74
1070
     0
1000
MTEXTEND
  0
HATCH
  5
4C90
330
4C2A
100
AcDbEntity
  8
エンボス
 48
3.0
100
AcDbHatch
 10
0.0
 20
0.0
 30
0.0
210
0.0
220
0.0
230
1.0
  2
ANSI31
 70
     0
 71
     1
 91
        3
 92
        7
 72
     0
 73
     1
 93
        4
 10
-162.7535188262832
 20
184.3424144569471
 10
-181.2127566006807
 20
184.3424144569471
 10
-181.2127566006807
 20
154.3424144569471
 10
-162.7535188262832
 20
154.3424144569471
 97
        4
330
4CA2
330
4C92
330
4C9B
330
4C91
 92
        7
 72
     0
 73
     1
 93
        4
 10
-162.7535188262832
 20
124.3424144569471
 10
-181.2127566006807
 20
124.3424144569471
 10
-181.2127566006807
 20
94.34241445694715
 10
-162.7535188262832
 20
94.34241445694715
 97
        4
330
4C9A
330
4C92
330
4C99
330
4C91
 92
        7
 72
     0
 73
     1
 93
        4
 10
-162.7535188262832
 20
64.34241445694714
 10
-181.2127566006807
 20
64.34241445694714
 10
-181.2127566006807
 20
34.34241445694715
 10
-162.7535188262832
 20
34.34241445694715
 97
        4
330
4C96
330
4C92
330
4C97
330
4C91
 75
     0
 76
     1
 52
0.0
 41
1.0
 77
     0
 78
     1
 53
45.0
 43
-2753.158979203233
 44
-190.798265917514
 45
-2.245064030267287
 46
2.245064030267287
 79
     0
 47
0.6348134515727966
 98
        3
 10
-171.6548759178213
 20
169.3956893989434
 10
-169.749006576817
 20
108.4535985350303
 10
-168.4784270161463
 20
41.7981862173019
  0
LINE
  5
4C91
102
{ACAD_REACTORS
330
4C90
102
}
330
4C2A
100
AcDbEntity
  8
エンボス
 48
3.0
100
AcDbLine
 10
-162.7535188262832
 20
196.1763000708091
 30
0.0
 11
-162.7535188262832
 21
11.25610299838536
 31
0.0
  0
LINE
  5
4C92
102
{ACAD_REACTORS
330
4C90
102
}
330
4C2A
100
AcDbEntity
  8
エンボス
 48
3.0
100
AcDbLine
 10
-181.2127566006807
 20
196.1763000708091
 30
0.0
 11
-181.2127566006807
 21
11.25610299838536
 31
0.0
  0
LINE
  5
4C93
330
4C2A
100
AcDbEntity
  8
エンボス
370
     0
100
AcDbLine
 10
-158.7535188262832
 20
196.1763000708091
 30
0.0
 11
-158.7535188262832
 21
11.25610299838536
 31
0.0
  0
LINE
  5
4C94
330
4C2A
100
AcDbEntity
  8
エンボス
370
     0
100
AcDbLine
 10
-185.2127566006807
 20
196.1763000708091
 30
0.0
 11
-185.2127566006807
 21
11.25610299838536
 31
0.0
  0
LWPOLYLINE
  5
4C95
330
4C2A
100
AcDbEntity
  8
エンボス
  6
Continuous
100
AcDbPolyline
 90
        4
 70
     1
 43
0.0
 10
-334.3157130905702
 20
286.2431911820901
 10
0.0
 20
286.2431911820901
 10
0.0
 20
0.0
 10
-334.3157130905702
 20
0.0
  0
LINE
  5
4C96
102
{ACAD_REACTORS
330
4C90
102
}
330
4C2A
100
AcDbEntity
  8
エンボス
 48
3.0
100
AcDbLine
 10
-185.2127566006807
 20
64.34241445694714
 30
0.0
 11
-158.7535188262832
 21
64.34241445694714
 31
0.0
  0
LINE
  5
4C97
102
{ACAD_REACTORS
330
4C90
102
}
330
4C2A
100
AcDbEntity
  8
エンボス
 48
3.0
100
AcDbLine
 10
-185.2127566006807
 20
34.34241445694715
 30
0.0
 11
-158.7535188262832
 21
34.34241445694715
 31
0.0
  0
LINE
  5
4C98
330
4C2A
100
AcDbEntity
  8
エンボス
 48
3.0
100
AcDbLine
 10
-185.2127566006807
 20
64.34241445694714
 30
0.0
 11
-158.7535188262832
 21
64.34241445694714
 31
0.0
  0
LINE
  5
4C99
102
{ACAD_REACTORS
330
4C90
102
}
330
4C2A
100
AcDbEntity
  8
エンボス
 48
3.0
100
AcDbLine
 10
-185.2127566006807
 20
94.34241445694715
 30
0.0
 11
-158.7535188262832
 21
94.34241445694715
 31
0.0
  0
LINE
  5
4C9A
102
{ACAD_REACTORS
330
4C90
102
}
330
4C2A
100
AcDbEntity
  8
エンボス
 48
3.0
100
AcDbLine
 10
-185.2127566006807
 20
124.3424144569471
 30
0.0
 11
-158.7535188262832
 21
124.3424144569471
 31
0.0
  0
LINE
  5
4C9B
102
{ACAD_REACTORS
330
4C90
102
}
330
4C2A
100
AcDbEntity
  8
エンボス
 48
3.0
100
AcDbLine
 10
-185.2127566006807
 20
154.3424144569471
 30
0.0
 11
-158.7535188262832
 21
154.3424144569471
 31
0.0
  0
LINE
  5
4C9C
330
4C2A
100
AcDbEntity
  8
エンボス
 48
3.0
100
AcDbLine
 10
-181.2127566006807
 20
94.34241445694715
 30
0.0
 11
-181.2127566006807
 21
64.34241445694714
 31
0.0
  0
LINE
  5
4C9D
330
4C2A
100
AcDbEntity
  8
エンボス
 48
3.0
100
AcDbLine
 10
-162.7535188262832
 20
94.34241445694715
 30
0.0
 11
-162.7535188262832
 21
64.34241445694714
 31
0.0
  0
LINE
  5
4C9E
330
4C2A
100
AcDbEntity
  8
エンボス
 48
3.0
100
AcDbLine
 10
-162.7535188262832
 20
154.3424144569471
 30
0.0
 11
-162.7535188262832
 21
124.3424144569471
 31
0.0
  0
LINE
  5
4C9F
330
4C2A
100
AcDbEntity
  8
エンボス
 48
3.0
100
AcDbLine
 10
-181.2127566006807
 20
154.3424144569471
 30
0.0
 11
-181.2127566006807
 21
124.3424144569471
 31
0.0
  0
MTEXT
  5
4CA0
330
4C2A
100
AcDbEntity
  8
エンボス
  6
Continuous
100
AcDbMText
 10
-274.5859176805975
 20
228.5805209364603
 30
0.0
 40
15.0
 41
230.6957
 71
     1
 72
     5
  1
※塗りつぶし部分突起
 73
     1
 44
1.0
1001
ACAD
1000
MTEXTBEGIN
1070
    73
1070
     1
1070
    44
1040
1.0
1070
    74
1070
     0
1000
MTEXTEND
  0
MTEXT
  5
4CA1
330
4C2A
100
AcDbEntity
  8
エンボス
  6
Continuous
370
     0
100
AcDbMText
 10
-291.6131251398165
 20
275.8957199484277
 30
0.0
 40
30.0
 41
252.8401
 71
     1
 72
     5
  1
HGFB形状詳細
 73
     1
 44
1.0
1001
ACAD
1000
MTEXTBEGIN
1070
    73
1070
     1
1070
    44
1040
1.0
1070
    74
1070
     0
1000
MTEXTEND
  0
LINE
  5
4CA2
102
{ACAD_REACTORS
330
4C90
102
}
330
4C2A
100
AcDbEntity
  8
エンボス
 48
3.0
100
AcDbLine
 10
-185.2127566006807
 20
184.3424144569471
 30
0.0
 11
-158.7535188262832
 21
184.3424144569471
 31
0.0
  0
ENDBLK
  5
4CA4
330
4C2A
100
AcDbEntity
  8
0
 48
3.0
100
AcDbBlockEnd
  0
BLOCK
  5
4D78
330
4D76
100
AcDbEntity
  8
0
 48
3.0
100
AcDbBlockBegin
  2
鎌下
 70
     0
 10
0.0
 20
0.0
 30
0.0
  3
鎌下
  1

  0
MTEXT
  5
4D79
330
4D76
100
AcDbEntity
  8
外枠
  6
Continuous
100
AcDbMText
 10
40.55333581259037
 20
-88.14888116777728
 30
0.0
 40
28.17460800000001
 41
43.8527
 71
     1
 72
     5
  1
{\fHGSeikaishotaiPRO|b0|i0|c128|p65;下}
 73
     1
 44
1.0
1001
ACAD
1000
MTEXTBEGIN
1070
    73
1070
     1
1070
    44
1040
1.0
1070
    74
1070
     0
1000
MTEXTEND
  0
MTEXT
  5
4D7A
330
4D76
100
AcDbEntity
  8
外枠
  6
Continuous
100
AcDbMText
 10
40.55333581259037
 20
-45.6188562986499
 30
0.0
 40
28.17460800000001
 41
43.8527
 71
     1
 72
     5
  1
{\fHGSeikaishotaiPRO|b0|i0|c128|p65;鎌}
 73
     1
 44
1.0
1001
ACAD
1000
MTEXTBEGIN
1070
    73
1070
     1
1070
    44
1040
1.0
1070
    74
1070
     0
1000
MTEXTEND
  0
ELLIPSE
  5
4D7B
330
4D76
100
AcDbEntity
  8
外枠
  6
Continuous
100
AcDbEllipse
 10
61.68068686355035
 20
-84.59863033186413
 30
0.0
 11
0.0
 21
-47.85944421494259
 31
0.0
210
0.0
220
0.0
230
1.0
 40
0.7999999999999857
 41
0.0
 42
6.283185307179585
  0
ENDBLK
  5
4D7C
330
4D76
100
AcDbEntity
  8
0
 48
3.0
100
AcDbBlockEnd
  0
BLOCK
  5
63DC
330
63DB
100
AcDbEntity
  8
0
 48
3.0
100
AcDbBlockBegin
  2
*U59
 70
     1
 10
0.0
 20
0.0
 30
0.0
  3
*U59
  1

  0
LINE
  5
63E2
330
63DB
100
AcDbEntity
  8
本体
  6
Continuous
100
AcDbLine
 10
-15.0
 20
175.5000000000001
 30
0.0
 11
-15.0
 21
152.9999999999999
 31
0.0
  0
LINE
  5
63E3
330
63DB
100
AcDbEntity
  8
本体
  6
Continuous
100
AcDbLine
 10
-12.0
 20
175.5000000000001
 30
0.0
 11
-12.0
 21
152.9999999999999
 31
0.0
  0
LINE
  5
63E4
330
63DB
100
AcDbEntity
  8
本体
  6
Continuous
100
AcDbLine
 10
-15.0
 20
147.0000000000001
 30
0.0
 11
-15.0
 21
102.9999999999999
 31
0.0
  0
LINE
  5
63E5
330
63DB
100
AcDbEntity
  8
本体
  6
Continuous
100
AcDbLine
 10
-12.0
 20
147.0000000000001
 30
0.0
 11
-12.0
 21
102.9999999999999
 31
0.0
  0
LINE
  5
63E6
330
63DB
100
AcDbEntity
  8
本体
  6
Continuous
100
AcDbLine
 10
-15.0
 20
147.0000000000001
 30
0.0
 11
15.0
 21
152.9999999999999
 31
0.0
  0
LINE
  5
63E7
330
63DB
100
AcDbEntity
  8
エンボス
  6
Continuous
100
AcDbLine
 10
-15.0
 20
127.8598926684035
 30
0.0
 11
-12.0
 21
125.8598926684035
 31
0.0
  0
LINE
  5
63E8
330
63DB
100
AcDbEntity
  8
エンボス
  6
Continuous
100
AcDbLine
 10
-15.0
 20
111.8598926684035
 30
0.0
 11
-12.0
 21
113.8598926684034
 31
0.0
  0
LINE
  5
63E9
330
63DB
100
AcDbEntity
  8
エンボス
  6
Continuous
100
AcDbLine
 10
-12.0
 20
106.8598926684035
 30
0.0
 11
-15.0
 21
108.8598926684035
 31
0.0
  0
LINE
  5
63EA
330
63DB
100
AcDbEntity
  8
エンボス
  6
Continuous
100
AcDbLine
 10
-12.0
 20
122.8598926684034
 30
0.0
 11
-15.0
 21
120.8598926684035
 31
0.0
  0
LINE
  5
63EB
330
63DB
100
AcDbEntity
  8
エンボス
  6
Continuous
100
AcDbLine
 10
-12.0
 20
165.250094
 30
0.0
 11
-15.0
 21
163.2500940000001
 31
0.0
  0
LINE
  5
63EC
330
63DB
100
AcDbEntity
  8
エンボス
  6
Continuous
100
AcDbLine
 10
-15.0
 20
170.2500940000001
 30
0.0
 11
-12.0
 21
168.2500940000001
 31
0.0
  0
LINE
  5
63ED
330
63DB
100
AcDbEntity
  8
エンボス
  6
Continuous
100
AcDbLine
 10
-15.0
 20
139.8598926684035
 30
0.0
 11
-12.0
 21
141.8598926684035
 31
0.0
  0
LINE
  5
63EE
330
63DB
100
AcDbEntity
  8
エンボス
  6
Continuous
100
AcDbLine
 10
-12.0
 20
134.8598926684035
 30
0.0
 11
-15.0
 21
136.8598926684035
 31
0.0
  0
LINE
  5
63EF
330
63DB
100
AcDbEntity
  8
本体
  6
Continuous
100
AcDbLine
 10
-15.0
 20
97.00000000000011
 30
0.0
 11
15.0
 21
102.9999999999999
 31
0.0
  0
LINE
  5
63F0
330
63DB
100
AcDbEntity
  8
本体
  6
Continuous
100
AcDbLine
 10
-12.0
 20
97.00000000000011
 30
0.0
 11
-12.0
 21
53.00000000000011
 31
0.0
  0
LINE
  5
63F1
330
63DB
100
AcDbEntity
  8
本体
  6
Continuous
100
AcDbLine
 10
-15.0
 20
97.00000000000011
 30
0.0
 11
-15.0
 21
53.00000000000011
 31
0.0
  0
LINE
  5
63F2
330
63DB
100
AcDbEntity
  8
エンボス
  6
Continuous
100
AcDbLine
 10
-12.0
 20
72.85989266840352
 30
0.0
 11
-15.0
 21
70.85989266840352
 31
0.0
  0
LINE
  5
63F3
330
63DB
100
AcDbEntity
  8
エンボス
  6
Continuous
100
AcDbLine
 10
-12.0
 20
56.85989266840351
 30
0.0
 11
-15.0
 21
58.85989266840351
 31
0.0
  0
LINE
  5
63F4
330
63DB
100
AcDbEntity
  8
エンボス
  6
Continuous
100
AcDbLine
 10
-15.0
 20
61.85989266840351
 30
0.0
 11
-12.0
 21
63.85989266840351
 31
0.0
  0
LINE
  5
63F5
330
63DB
100
AcDbEntity
  8
エンボス
  6
Continuous
100
AcDbLine
 10
-15.0
 20
77.85989266840352
 30
0.0
 11
-12.0
 21
75.85989266840352
 31
0.0
  0
LINE
  5
63F6
330
63DB
100
AcDbEntity
  8
エンボス
  6
Continuous
100
AcDbLine
 10
-12.0
 20
84.85989266840352
 30
0.0
 11
-15.0
 21
86.85989266840351
 31
0.0
  0
LINE
  5
63F7
330
63DB
100
AcDbEntity
  8
エンボス
  6
Continuous
100
AcDbLine
 10
-15.0
 20
89.8598926684034
 30
0.0
 11
-12.0
 21
91.85989266840351
 31
0.0
  0
LINE
  5
63F8
330
63DB
100
AcDbEntity
  8
本体
  6
Continuous
100
AcDbLine
 10
-15.0
 20
47.00000000000011
 30
0.0
 11
15.0
 21
53.00000000000011
 31
0.0
  0
LINE
  5
63F9
330
63DB
100
AcDbEntity
  8
本体
  6
Continuous
100
AcDbLine
 10
-12.0
 20
47.00000000000011
 30
0.0
 11
-12.0
 21
3.000000000000113
 31
0.0
  0
LINE
  5
63FA
330
63DB
100
AcDbEntity
  8
本体
  6
Continuous
100
AcDbLine
 10
-15.0
 20
47.00000000000011
 30
0.0
 11
-15.0
 21
3.000000000000113
 31
0.0
  0
LINE
  5
63FB
330
63DB
100
AcDbEntity
  8
エンボス
  6
Continuous
100
AcDbLine
 10
-12.0
 20
22.85989266840352
 30
0.0
 11
-15.0
 21
20.85989266840352
 31
0.0
  0
LINE
  5
63FC
330
63DB
100
AcDbEntity
  8
エンボス
  6
Continuous
100
AcDbLine
 10
-12.0
 20
6.859892668403517
 30
0.0
 11
-15.0
 21
8.859892668403517
 31
0.0
  0
LINE
  5
63FD
330
63DB
100
AcDbEntity
  8
エンボス
  6
Continuous
100
AcDbLine
 10
-15.0
 20
11.85989266840351
 30
0.0
 11
-12.0
 21
13.85989266840352
 31
0.0
  0
LINE
  5
63FE
330
63DB
100
AcDbEntity
  8
エンボス
  6
Continuous
100
AcDbLine
 10
-15.0
 20
27.85989266840352
 30
0.0
 11
-12.0
 21
25.85989266840352
 31
0.0
  0
LINE
  5
63FF
330
63DB
100
AcDbEntity
  8
エンボス
  6
Continuous
100
AcDbLine
 10
-12.0
 20
34.85989266840352
 30
0.0
 11
-15.0
 21
36.85989266840352
 31
0.0
  0
LINE
  5
6400
330
63DB
100
AcDbEntity
  8
エンボス
  6
Continuous
100
AcDbLine
 10
-15.0
 20
39.85989266840352
 30
0.0
 11
-12.0
 21
41.85989266840351
 31
0.0
  0
LINE
  5
6401
330
63DB
100
AcDbEntity
  8
本体
  6
Continuous
100
AcDbLine
 10
-15.0
 20
-2.999999999999886
 30
0.0
 11
15.0
 21
3.000000000000113
 31
0.0
  0
LINE
  5
6402
330
63DB
100
AcDbEntity
  8
本体
  6
Continuous
100
AcDbLine
 10
-12.0
 20
-2.999999999999886
 30
0.0
 11
-12.0
 21
-47.0
 31
0.0
  0
LINE
  5
6403
330
63DB
100
AcDbEntity
  8
本体
  6
Continuous
100
AcDbLine
 10
-15.0
 20
-2.999999999999886
 30
0.0
 11
-15.0
 21
-47.0
 31
0.0
  0
LINE
  5
6404
330
63DB
100
AcDbEntity
  8
エンボス
  6
Continuous
100
AcDbLine
 10
-12.0
 20
-27.14010733159649
 30
0.0
 11
-15.0
 21
-29.14010733159648
 31
0.0
  0
LINE
  5
6405
330
63DB
100
AcDbEntity
  8
エンボス
  6
Continuous
100
AcDbLine
 10
-12.0
 20
-43.14010733159648
 30
0.0
 11
-15.0
 21
-41.14010733159648
 31
0.0
  0
LINE
  5
6406
330
63DB
100
AcDbEntity
  8
エンボス
  6
Continuous
100
AcDbLine
 10
-15.0
 20
-38.14010733159648
 30
0.0
 11
-12.0
 21
-36.14010733159648
 31
0.0
  0
LINE
  5
6407
330
63DB
100
AcDbEntity
  8
エンボス
  6
Continuous
100
AcDbLine
 10
-15.0
 20
-22.14010733159648
 30
0.0
 11
-12.0
 21
-24.14010733159648
 31
0.0
  0
LINE
  5
6408
330
63DB
100
AcDbEntity
  8
エンボス
  6
Continuous
100
AcDbLine
 10
-12.0
 20
-15.14010733159648
 30
0.0
 11
-15.0
 21
-13.14010733159648
 31
0.0
  0
LINE
  5
6409
330
63DB
100
AcDbEntity
  8
エンボス
  6
Continuous
100
AcDbLine
 10
-15.0
 20
-10.14010733159648
 30
0.0
 11
-12.0
 21
-8.140107331596482
 31
0.0
  0
LINE
  5
640A
330
63DB
100
AcDbEntity
  8
本体
  6
Continuous
100
AcDbLine
 10
-15.0
 20
-53.0
 30
0.0
 11
15.0
 21
-47.0
 31
0.0
  0
LINE
  5
640B
330
63DB
100
AcDbEntity
  8
本体
  6
Continuous
100
AcDbLine
 10
-12.0
 20
-53.0
 30
0.0
 11
-12.0
 21
-97.0
 31
0.0
  0
LINE
  5
640C
330
63DB
100
AcDbEntity
  8
本体
  6
Continuous
100
AcDbLine
 10
-15.0
 20
-53.0
 30
0.0
 11
-15.0
 21
-97.0
 31
0.0
  0
LINE
  5
640D
330
63DB
100
AcDbEntity
  8
エンボス
  6
Continuous
100
AcDbLine
 10
-12.0
 20
-77.14010733159648
 30
0.0
 11
-15.0
 21
-79.14010733159648
 31
0.0
  0
LINE
  5
640E
330
63DB
100
AcDbEntity
  8
エンボス
  6
Continuous
100
AcDbLine
 10
-12.0
 20
-93.14010733159648
 30
0.0
 11
-15.0
 21
-91.14010733159648
 31
0.0
  0
LINE
  5
640F
330
63DB
100
AcDbEntity
  8
エンボス
  6
Continuous
100
AcDbLine
 10
-15.0
 20
-88.14010733159648
 30
0.0
 11
-12.0
 21
-86.14010733159648
 31
0.0
  0
LINE
  5
6410
330
63DB
100
AcDbEntity
  8
エンボス
  6
Continuous
100
AcDbLine
 10
-15.0
 20
-72.14010733159648
 30
0.0
 11
-12.0
 21
-74.14010733159648
 31
0.0
  0
LINE
  5
6411
330
63DB
100
AcDbEntity
  8
エンボス
  6
Continuous
100
AcDbLine
 10
-12.0
 20
-65.14010733159648
 30
0.0
 11
-15.0
 21
-63.14010733159648
 31
0.0
  0
LINE
  5
6412
330
63DB
100
AcDbEntity
  8
エンボス
  6
Continuous
100
AcDbLine
 10
-15.0
 20
-60.14010733159648
 30
0.0
 11
-12.0
 21
-58.14010733159648
 31
0.0
  0
LINE
  5
6413
330
63DB
100
AcDbEntity
  8
本体
  6
Continuous
100
AcDbLine
 10
-15.0
 20
-103.0
 30
0.0
 11
15.0
 21
-97.0
 31
0.0
  0
LINE
  5
6414
330
63DB
100
AcDbEntity
  8
本体
  6
Continuous
100
AcDbLine
 10
-12.0
 20
-103.0
 30
0.0
 11
-12.0
 21
-147.0
 31
0.0
  0
LINE
  5
6415
330
63DB
100
AcDbEntity
  8
本体
  6
Continuous
100
AcDbLine
 10
-15.0
 20
-103.0
 30
0.0
 11
-15.0
 21
-147.0
 31
0.0
  0
LINE
  5
6416
330
63DB
100
AcDbEntity
  8
エンボス
  6
Continuous
100
AcDbLine
 10
-12.0
 20
-127.1401073315965
 30
0.0
 11
-15.0
 21
-129.1401073315965
 31
0.0
  0
LINE
  5
6417
330
63DB
100
AcDbEntity
  8
エンボス
  6
Continuous
100
AcDbLine
 10
-12.0
 20
-143.1401073315965
 30
0.0
 11
-15.0
 21
-141.1401073315964
 31
0.0
  0
LINE
  5
6418
330
63DB
100
AcDbEntity
  8
エンボス
  6
Continuous
100
AcDbLine
 10
-15.0
 20
-138.1401073315965
 30
0.0
 11
-12.0
 21
-136.1401073315965
 31
0.0
  0
LINE
  5
6419
330
63DB
100
AcDbEntity
  8
エンボス
  6
Continuous
100
AcDbLine
 10
-15.0
 20
-122.1401073315965
 30
0.0
 11
-12.0
 21
-124.1401073315965
 31
0.0
  0
LINE
  5
641A
330
63DB
100
AcDbEntity
  8
エンボス
  6
Continuous
100
AcDbLine
 10
-12.0
 20
-115.1401073315964
 30
0.0
 11
-15.0
 21
-113.1401073315965
 31
0.0
  0
LINE
  5
641B
330
63DB
100
AcDbEntity
  8
エンボス
  6
Continuous
100
AcDbLine
 10
-15.0
 20
-110.1401073315965
 30
0.0
 11
-12.0
 21
-108.1401073315965
 31
0.0
  0
LINE
  5
641C
330
63DB
100
AcDbEntity
  8
本体
  6
Continuous
100
AcDbLine
 10
-15.0
 20
-153.0
 30
0.0
 11
15.0
 21
-147.0
 31
0.0
  0
LINE
  5
641D
330
63DB
100
AcDbEntity
  8
本体
  6
Continuous
100
AcDbLine
 10
-12.0
 20
-153.0
 30
0.0
 11
-12.0
 21
-175.5000000000001
 31
0.0
  0
LINE
  5
641E
330
63DB
100
AcDbEntity
  8
本体
  6
Continuous
100
AcDbLine
 10
-15.0
 20
-153.0
 30
0.0
 11
-15.0
 21
-175.5000000000001
 31
0.0
  0
LINE
  5
641F
330
63DB
100
AcDbEntity
  8
エンボス
  6
Continuous
100
AcDbLine
 10
-12.0
 20
-165.1401073315964
 30
0.0
 11
-15.0
 21
-163.1401073315965
 31
0.0
  0
LINE
  5
6420
330
63DB
100
AcDbEntity
  8
エンボス
  6
Continuous
100
AcDbLine
 10
-15.0
 20
-160.1401073315965
 30
0.0
 11
-12.0
 21
-158.1401073315965
 31
0.0
  0
ENDBLK
  5
63DD
330
63DB
100
AcDbEntity
  8
0
 48
3.0
100
AcDbBlockEnd
  0
BLOCK
  5
63DF
330
63DE
100
AcDbEntity
  8
0
 48
3.0
100
AcDbBlockBegin
  2
*U60
 70
     1
 10
0.0
 20
0.0
 30
0.0
  3
*U60
  1

  0
INSERT
  5
642F
330
63DE
100
AcDbEntity
  8
本体
  6
ByBlock
 62
     0
370
    -2
380
     1
100
AcDbBlockReference
  2
*U59
 10
0.0
 20
0.0
 30
0.0
  0
INSERT
  5
6430
330
63DE
100
AcDbEntity
  8
本体
  6
ByBlock
 62
     0
370
    -2
380
     1
100
AcDbBlockReference
  2
*U59
 10
30.0
 20
0.0
 30
0.0
  0
INSERT
  5
6431
330
63DE
100
AcDbEntity
  8
本体
  6
ByBlock
 62
     0
370
    -2
380
     1
100
AcDbBlockReference
  2
*U59
 10
60.0
 20
0.0
 30
0.0
  0
INSERT
  5
6432
330
63DE
100
AcDbEntity
  8
本体
  6
ByBlock
 62
     0
370
    -2
380
     1
100
AcDbBlockReference
  2
*U59
 10
90.0
 20
0.0
 30
0.0
  0
INSERT
  5
6433
330
63DE
100
AcDbEntity
  8
本体
  6
ByBlock
 62
     0
370
    -2
380
     1
100
AcDbBlockReference
  2
*U59
 10
120.0
 20
0.0
 30
0.0
  0
INSERT
  5
6434
330
63DE
100
AcDbEntity
  8
本体
  6
ByBlock
 62
     0
370
    -2
380
     1
100
AcDbBlockReference
  2
*U59
 10
150.0
 20
0.0
 30
0.0
  0
INSERT
  5
6435
330
63DE
100
AcDbEntity
  8
本体
  6
ByBlock
 62
     0
370
    -2
380
     1
100
AcDbBlockReference
  2
*U59
 10
180.0
 20
0.0
 30
0.0
  0
INSERT
  5
6436
330
63DE
100
AcDbEntity
  8
本体
  6
ByBlock
 62
     0
370
    -2
380
     1
100
AcDbBlockReference
  2
*U59
 10
210.0
 20
0.0
 30
0.0
  0
INSERT
  5
6437
330
63DE
100
AcDbEntity
  8
本体
  6
ByBlock
 62
     0
370
    -2
380
     1
100
AcDbBlockReference
  2
*U59
 10
240.0
 20
0.0
 30
0.0
  0
INSERT
  5
6438
330
63DE
100
AcDbEntity
  8
本体
  6
ByBlock
 62
     0
370
    -2
380
     1
100
AcDbBlockReference
  2
*U59
 10
270.0
 20
0.0
 30
0.0
  0
INSERT
  5
6439
330
63DE
100
AcDbEntity
  8
本体
  6
ByBlock
 62
     0
370
    -2
380
     1
100
AcDbBlockReference
  2
*U59
 10
300.0
 20
0.0
 30
0.0
  0
INSERT
  5
643A
330
63DE
100
AcDbEntity
  8
本体
  6
ByBlock
 62
     0
370
    -2
380
     1
100
AcDbBlockReference
  2
*U59
 10
330.0
 20
0.0
 30
0.0
  0
INSERT
  5
643B
330
63DE
100
AcDbEntity
  8
本体
  6
ByBlock
 62
     0
370
    -2
380
     1
100
AcDbBlockReference
  2
*U59
 10
360.0
 20
0.0
 30
0.0
  0
INSERT
  5
643C
330
63DE
100
AcDbEntity
  8
本体
  6
ByBlock
 62
     0
370
    -2
380
     1
100
AcDbBlockReference
  2
*U59
 10
390.0
 20
0.0
 30
0.0
  0
INSERT
  5
643D
330
63DE
100
AcDbEntity
  8
本体
  6
ByBlock
 62
     0
370
    -2
380
     1
100
AcDbBlockReference
  2
*U59
 10
420.0
 20
0.0
 30
0.0
  0
ENDBLK
  5
63E0
330
63DE
100
AcDbEntity
  8
0
 48
3.0
100
AcDbBlockEnd
  0
ENDSEC
  0
SECTION
  2
ENTITIES
  0
LEADER
  5
158C
330
2
100
AcDbEntity
  8
寸法線
  6
Continuous
100
AcDbLeader
  3
ISO-25
 73
     0
 74
     0
 75
     1
 40
30.0
 41
171.1675126903553
 76
     3
 10
3944.879475133662
 20
902.4254829735147
 30
0.0
 10
4000.590153252317
 20
982.4261610921697
 30
0.0
 10
4015.590153252317
 20
982.4261610921697
 30
0.0
340
158D
1001
ACAD
1000
DSTYLE
1002
{
1070
     5
1000
OPEN30
1070
    77
1070
     1
1070
   147
1040
0.5
1002
}
  0
MTEXT
  5
158D
102
{ACAD_REACTORS
330
158C
102
}
330
2
100
AcDbEntity
  8
寸法線
  6
Continuous
100
AcDbMText
 10
4020.590153252316
 20
987.4261610921696
 30
0.0
 40
30.0
 41
0.0
 71
     7
 72
     1
  1
FB4.5\U+00D719
 73
     1
 44
1.0
1001
ACAD
1000
MTEXTBEGIN
1070
    73
1070
     1
1070
    44
1040
1.0
1070
    74
1070
     0
1000
MTEXTEND
  0
LINE
  5
158F
330
2
100
AcDbEntity
  8
嵩上平面
  6
HIDDEN
 48
3.0
370
     9
100
AcDbLine
 10
3962.628652219983
 20
553.9208652721588
 30
0.0
 11
3467.628652219982
 21
553.9208652721588
 31
0.0
  0
LINE
  5
1590
330
2
100
AcDbEntity
  8
嵩上平面
  6
HIDDEN
 48
3.0
370
     9
100
AcDbLine
 10
3962.628652219983
 20
593.9208652721587
 30
0.0
 11
3467.628652219982
 21
593.9208652721587
 31
0.0
  0
LINE
  5
1591
330
2
100
AcDbEntity
  8
嵩上平面
  6
HIDDEN
 48
3.0
370
     9
100
AcDbLine
 10
3962.628652219983
 20
853.9208672721585
 30
0.0
 11
3467.628652219982
 21
853.9208672721585
 31
0.0
  0
LINE
  5
1592
330
2
100
AcDbEntity
  8
嵩上平面
  6
HIDDEN
 48
3.0
370
     9
100
AcDbLine
 10
3962.628652219983
 20
893.9208672721591
 30
0.0
 11
3467.628652219982
 21
893.9208672721591
 31
0.0
  0
LINE
  5
1596
330
2
100
AcDbEntity
  8
嵩上断面
  6
Continuous
100
AcDbLine
 10
3467.628652219982
 20
1425.747982474914
 30
0.0
 11
3962.628652219982
 21
1425.747982474914
 31
0.0
  0
DIMENSION
  5
1597
330
2
100
AcDbEntity
  8
寸法線
  6
Continuous
100
AcDbDimension
  2
*D22
 10
3965.128652219982
 20
1680.750772596619
 30
0.0
 11
3715.128652219982
 21
1700.750772596619
 31
0.0
 70
    32
 71
     5
 42
500.0
  3
ISO-25
100
AcDbAlignedDimension
 13
3465.128652219982
 23
1514.747982474914
 33
0.0
 14
3965.128652219982
 24
1514.747982474914
 34
0.0
100
AcDbRotatedDimension
  0
LINE
  5
159A
330
2
100
AcDbEntity
  8
本体
  6
Continuous
100
AcDbLine
 10
3465.128652219982
 20
543.9208662721585
 30
0.0
 11
3965.128652219983
 21
543.9208662721585
 31
0.0
  0
LINE
  5
159B
330
2
100
AcDbEntity
  8
本体
  6
Continuous
100
AcDbLine
 10
3465.128652219982
 20
548.4208662721585
 30
0.0
 11
3965.128652219983
 21
548.4208662721585
 31
0.0
  0
DIMENSION
  5
159F
330
2
100
AcDbEntity
  8
寸法線
  6
Continuous
100
AcDbDimension
  2
*D23
 10
3962.628652219982
 20
1265.747982474914
 30
0.0
 11
3715.128652219982
 21
1285.747982474914
 31
0.0
 70
    32
 71
     5
 42
495.0
  3
ISO-25
100
AcDbAlignedDimension
 13
3467.628652219982
 23
1425.747982474914
 33
0.0
 14
3962.628652219982
 24
1425.747982474914
 34
0.0
100
AcDbRotatedDimension
  0
LINE
  5
15A0
330
2
100
AcDbEntity
  8
嵩上断面
  6
HIDDEN
 48
2.0
100
AcDbLine
 10
3962.628652219982
 20
1428.947982474914
 30
0.0
 11
3467.628652219982
 21
1428.947982474914
 31
0.0
  0
LINE
  5
15A1
330
2
100
AcDbEntity
  8
嵩上断面
  6
HIDDEN
 48
2.0
100
AcDbLine
 10
3962.628652219982
 20
1492.547982474914
 30
0.0
 11
3467.628652219982
 21
1492.547982474914
 31
0.0
  0
LINE
  5
15A2
330
2
100
AcDbEntity
  8
嵩上断面
  6
Continuous
100
AcDbLine
 10
3962.628652219982
 20
1495.747982474914
 30
0.0
 11
3467.628652219982
 21
1495.747982474914
 31
0.0
  0
LINE
  5
15A5
330
2
100
AcDbEntity
  8
本体
  6
Continuous
100
AcDbLine
 10
3465.128652219982
 20
870.9208662721588
 30
0.0
 11
3965.128652219983
 21
870.9208662721588
 31
0.0
  0
LINE
  5
15A6
330
2
100
AcDbEntity
  8
本体
  6
Continuous
100
AcDbLine
 10
3465.128652219982
 20
876.9208662721586
 30
0.0
 11
3965.128652219983
 21
876.9208662721586
 31
0.0
  0
LINE
  5
15A7
330
2
100
AcDbEntity
  8
本体
  6
Continuous
100
AcDbLine
 10
3465.128652219982
 20
899.4208662721588
 30
0.0
 11
3965.128652219983
 21
899.4208662721588
 31
0.0
  0
LINE
  5
15A8
330
2
100
AcDbEntity
  8
本体
  6
Continuous
100
AcDbLine
 10
3465.128652219982
 20
903.9208662721588
 30
0.0
 11
3965.128652219983
 21
903.9208662721588
 31
0.0
  0
LINE
  5
15AD
330
2
100
AcDbEntity
  8
嵩上断面
  6
Continuous
100
AcDbLine
 10
3467.628652219982
 20
1495.747982474914
 30
0.0
 11
3467.628652219982
 21
1425.747982474914
 31
0.0
  0
DIMENSION
  5
18A6
330
2
100
AcDbEntity
  8
寸法線
  6
Continuous
100
AcDbDimension
  2
*D24
 10
3736.628652219982
 20
1589.545376428157
 30
0.0
 11
3789.52205323521
 21
1609.545376428157
 31
0.0
 70
    32
 71
     5
 42
30.0
  3
ISO-25
100
AcDbAlignedDimension
 13
3706.628652219983
 23
1520.747982474914
 33
0.0
 14
3736.628652219982
 24
1520.747982474914
 34
0.0
100
AcDbRotatedDimension
  0
LINE
  5
197C
330
2
100
AcDbEntity
  8
本体
  6
Continuous
100
AcDbLine
 10
3706.628652219983
 20
1523.544698309502
 30
0.0
 11
3706.628652219983
 21
1487.747982474914
 31
0.0
  0
LINE
  5
19D3
330
2
100
AcDbEntity
  8
本体
  6
Continuous
100
AcDbLine
 10
3736.628652219982
 20
1523.544698309502
 30
0.0
 11
3736.628652219982
 21
1487.747982474914
 31
0.0
  0
LINE
  5
1AD4
330
2
100
AcDbEntity
  8
嵩上平面
  6
HIDDEN
 48
3.0
370
     9
100
AcDbLine
 10
3467.628652219982
 20
853.9208672721585
 30
0.0
 11
3467.628652219982
 21
893.9208672721591
 31
0.0
  0
LINE
  5
1ADE
330
2
100
AcDbEntity
  8
本体
  6
Continuous
100
AcDbLine
 10
3468.128652219982
 20
899.4208662721588
 30
0.0
 11
3468.128652219982
 21
876.9208662721586
 31
0.0
  0
LINE
  5
1AE0
330
2
100
AcDbEntity
  8
本体
  6
Continuous
100
AcDbLine
 10
3465.128652219982
 20
899.4208662721588
 30
0.0
 11
3465.128652219982
 21
876.9208662721586
 31
0.0
  0
LINE
  5
1AFA
330
2
100
AcDbEntity
  8
嵩上平面
  6
HIDDEN
 48
3.0
370
     9
100
AcDbLine
 10
3467.628652219982
 20
553.9208652721588
 30
0.0
 11
3467.628652219982
 21
593.9208652721587
 31
0.0
  0
LINE
  5
1B00
330
2
100
AcDbEntity
  8
本体
  6
Continuous
100
AcDbLine
 10
3465.128652219982
 20
870.9208662721588
 30
0.0
 11
3495.128652219982
 21
876.9208662721586
 31
0.0
  0
LINE
  5
1B01
330
2
100
AcDbEntity
  8
本体
  6
Continuous
100
AcDbLine
 10
3465.128652219982
 20
870.9208662721588
 30
0.0
 11
3465.128652219982
 21
826.9208662721586
 31
0.0
  0
LINE
  5
1B02
330
2
100
AcDbEntity
  8
本体
  6
Continuous
100
AcDbLine
 10
3465.128652219982
 20
826.9208662721586
 30
0.0
 11
3465.128652219982
 21
820.9208662721588
 31
0.0
  0
LINE
  5
1B03
330
2
100
AcDbEntity
  8
本体
  6
Continuous
100
AcDbLine
 10
3465.128652219982
 20
876.9208662721586
 30
0.0
 11
3465.128652219982
 21
870.9208662721588
 31
0.0
  0
LINE
  5
1B0A
330
2
100
AcDbEntity
  8
本体
  6
Continuous
100
AcDbLine
 10
3468.128652219982
 20
870.9208662721588
 30
0.0
 11
3468.128652219982
 21
826.9208662721586
 31
0.0
  0
LINE
  5
1B0F
330
2
100
AcDbEntity
  8
本体
  6
Continuous
100
AcDbLine
 10
3465.128652219982
 20
903.9208662721588
 30
0.0
 11
3465.128652219982
 21
899.4208662721588
 31
0.0
  0
DIMENSION
  5
1CA3
330
2
100
AcDbEntity
  8
寸法線
 48
3.0
100
AcDbDimension
  2
*D25
 10
4074.633276143745
 20
1495.747982474914
 30
0.0
 11
4054.633276143746
 21
1460.747982474915
 31
0.0
 70
    32
 71
     5
 42
70.0
  3
ISO-25
100
AcDbAlignedDimension
 13
3964.628652219982
 23
1425.747982474914
 33
0.0
 14
3967.128652219982
 24
1495.747982474914
 34
0.0
 50
90.0
100
AcDbRotatedDimension
  0
DIMENSION
  5
1CA4
330
2
100
AcDbEntity
  8
寸法線
  6
Continuous
100
AcDbDimension
  2
*D26
 10
4154.635513047245
 20
1425.747982474914
 30
0.0
 11
4134.635513047244
 21
1470.247982474915
 31
0.0
 70
    32
 71
     5
 42
89.0
  3
ISO-25
100
AcDbAlignedDimension
 13
3965.128652219982
 23
1514.747982474914
 33
0.0
 14
3964.628652219982
 24
1425.747982474914
 34
0.0
 50
90.0
100
AcDbRotatedDimension
  0
DIMENSION
  5
1CA5
330
2
100
AcDbEntity
  8
寸法線
  6
Continuous
100
AcDbDimension
  2
*D27
 10
4074.633276143745
 20
1514.747982474914
 30
0.0
 11
4054.633276143746
 21
1566.194682982529
 31
0.0
 70
    32
 71
     5
 42
19.0
  3
ISO-25
100
AcDbAlignedDimension
 13
3964.628652219982
 23
1495.747982474914
 33
0.0
 14
3965.128652219982
 24
1514.747982474914
 34
0.0
 50
90.0
100
AcDbRotatedDimension
  0
LINE
  5
1CA6
330
2
100
AcDbEntity
  8
嵩上断面
  6
Continuous
100
AcDbLine
 10
3962.628652219982
 20
1495.747982474914
 30
0.0
 11
3962.628652219982
 21
1425.747982474914
 31
0.0
  0
MTEXT
  5
1CCC
102
{ACAD_REACTORS
330
1CCD
102
}
330
2
100
AcDbEntity
  8
寸法線
  6
Continuous
100
AcDbMText
 10
3610.001748666682
 20
1350.747982474914
 30
0.0
 40
30.0
 41
0.0
 71
     7
 72
     1
  1
P2.3\U+00D770\U+00D740
 73
     1
 44
1.0
1001
ACAD
1000
MTEXTBEGIN
1070
    73
1070
     1
1070
    44
1040
1.0
1070
    74
1070
     0
1000
MTEXTEND
  0
LEADER
  5
1CCD
330
2
100
AcDbEntity
  8
寸法線
  6
Continuous
100
AcDbLeader
  3
ISO-25
 73
     0
 74
     0
 75
     1
 40
30.0
 41
230.2538071065989
 76
     3
 10
3537.543061050484
 20
1437.473673789355
 30
0.0
 10
3590.001748666682
 20
1345.747982474914
 30
0.0
 10
3605.001748666682
 20
1345.747982474914
 30
0.0
340
1CCC
1001
ACAD
1000
DSTYLE
1002
{
1070
     5
1000
OPEN30
1070
    77
1070
     1
1070
   147
1040
0.5
1002
}
  0
DIMENSION
  5
1CCE
330
2
100
AcDbEntity
  8
寸法線
  6
Continuous
100
AcDbDimension
  2
*D28
 10
4815.421490575605
 20
1355.747063967037
 30
0.0
 11
4985.421493575606
 21
1375.747063967037
 31
0.0
 70
    32
 71
     5
 42
340.0000060000011
  3
ISO-25
100
AcDbAlignedDimension
 13
5155.421496575606
 23
1428.747986074914
 33
0.0
 14
4815.421490575605
 24
1428.747986074914
 34
0.0
100
AcDbRotatedDimension
  0
LINE
  5
1CD0
330
2
100
AcDbEntity
  8
嵩上平面
  6
HIDDEN
 48
3.0
370
     9
100
AcDbLine
 10
3962.628652219983
 20
853.9208672721585
 30
0.0
 11
3962.628652219983
 21
893.9208672721591
 31
0.0
  0
DIMENSION
  5
1CD4
330
2
100
AcDbEntity
  8
寸法線
  6
Continuous
100
AcDbDimension
  2
*D29
 10
4805.421493575606
 20
1674.755404406894
 30
0.0
 11
4985.421493575606
 21
1694.755404406893
 31
0.0
 70
    32
 71
     5
 42
360.0
  3
ISO-25
100
AcDbAlignedDimension
 13
5165.421493575607
 23
1514.747982474914
 33
0.0
 14
4805.421493575606
 24
1514.747982474914
 34
0.0
100
AcDbRotatedDimension
  0
MTEXT
  5
1CD5
102
{ACAD_REACTORS
330
1CDD
102
}
330
2
100
AcDbEntity
  8
寸法線
  6
Continuous
100
AcDbMText
 10
4040.839330338637
 20
874.0985422362953
 30
0.0
 40
30.0
 41
0.0
 71
     7
 72
     1
  1
HGFB2.5\U+00D719
 73
     1
 44
1.0
1001
ACAD
1000
MTEXTBEGIN
1070
    73
1070
     1
1070
    44
1040
1.0
1070
    74
1070
     0
1000
MTEXTEND
  0
LINE
  5
1CD8
330
2
100
AcDbEntity
  8
本体
  6
Continuous
100
AcDbLine
 10
5160.921493575607
 20
1495.747982474914
 30
0.0
 11
4809.921493575608
 21
1495.747982474914
 31
0.0
  0
LINE
  5
1CD9
330
2
100
AcDbEntity
  8
本体
  6
Continuous
100
AcDbLine
 10
5160.921493575607
 20
1514.747982474914
 30
0.0
 11
4809.921493575608
 21
1514.747982474914
 31
0.0
  0
LINE
  5
1CDC
330
2
100
AcDbEntity
  8
本体
  6
Continuous
100
AcDbLine
 10
3965.128652219983
 20
543.9208662721585
 30
0.0
 11
3965.128652219982
 21
903.9208662721588
 31
0.0
  0
LEADER
  5
1CDD
330
2
100
AcDbEntity
  8
寸法線
  6
Continuous
100
AcDbLeader
  3
ISO-25
 73
     0
 74
     0
 75
     1
 40
30.0
 41
210.3045685279188
 76
     3
 10
3965.128652219982
 20
787.7807589405622
 30
0.0
 10
4020.839330338637
 20
869.0985422362953
 30
0.0
 10
4035.839330338637
 20
869.0985422362953
 30
0.0
340
1CD5
1001
ACAD
1000
DSTYLE
1002
{
1070
     5
1000
OPEN30
1070
    77
1070
     1
1070
   147
1040
0.5
1002
}
  0
MTEXT
  5
1CE3
102
{ACAD_REACTORS
330
1CE4
102
}
330
2
100
AcDbEntity
  8
寸法線
  6
Continuous
100
AcDbMText
 10
4040.839330338637
 20
708.9215443908134
 30
0.0
 40
30.0
 41
0.0
 71
     7
 72
     1
  1
TB
 73
     1
 44
1.0
1001
ACAD
1000
MTEXTBEGIN
1070
    73
1070
     1
1070
    44
1040
1.0
1070
    74
1070
     0
1000
MTEXTEND
  0
LEADER
  5
1CE4
330
2
100
AcDbEntity
  8
寸法線
  6
Continuous
100
AcDbLeader
  3
ISO-25
 73
     0
 74
     0
 75
     1
 40
30.0
 41
35.78680203045685
 76
     3
 10
3965.128652219983
 20
623.9208662721587
 30
0.0
 10
4020.839330338637
 20
703.9215443908134
 30
0.0
 10
4035.839330338637
 20
703.9215443908134
 30
0.0
340
1CE3
1001
ACAD
1000
DSTYLE
1002
{
1070
     5
1000
OPEN30
1070
    77
1070
     1
1070
   147
1040
0.5
1002
}
  0
LINE
  5
1CE5
330
2
100
AcDbEntity
  8
嵩上平面
  6
HIDDEN
 48
3.0
370
     9
100
AcDbLine
 10
3962.628652219983
 20
553.9208652721588
 30
0.0
 11
3962.628652219983
 21
593.9208652721587
 31
0.0
  0
LINE
  5
1CF1
330
2
100
AcDbEntity
  8
本体
  6
Continuous
100
AcDbLine
 10
4805.421493575606
 20
1495.747982474914
 30
0.0
 11
4805.421493575606
 21
1514.747982474914
 31
0.0
  0
LINE
  5
1CF2
330
2
100
AcDbEntity
  8
本体
  6
Continuous
100
AcDbLine
 10
4809.921493575608
 20
1514.747982474914
 30
0.0
 11
4809.921493575608
 21
1495.747982474914
 31
0.0
  0
LINE
  5
1CF3
330
2
100
AcDbEntity
  8
本体
  6
Continuous
100
AcDbLine
 10
4805.421493575606
 20
1514.747982474914
 30
0.0
 11
4809.921493575608
 21
1514.747982474914
 31
0.0
  0
LINE
  5
1CF4
330
2
100
AcDbEntity
  8
本体
  6
Continuous
100
AcDbLine
 10
4809.921493575608
 20
1495.747982474914
 30
0.0
 11
4805.421493575606
 21
1495.747982474914
 31
0.0
  0
DIMENSION
  5
1CF5
330
2
100
AcDbEntity
  8
寸法線
  6
Continuous
100
AcDbDimension
  2
*D30
 10
5035.421493575606
 20
1594.751652523547
 30
0.0
 11
5060.421493575606
 21
1614.751652523547
 31
0.0
 70
    32
 71
     5
 42
50.0
  3
ISO-25
100
AcDbAlignedDimension
 13
5085.421493575606
 23
1514.747982474914
 33
0.0
 14
5035.421493575606
 24
1517.747982474914
 34
0.0
100
AcDbRotatedDimension
  0
INSERT
  5
1CF7
330
2
100
AcDbEntity
  8
本体
  6
Continuous
100
AcDbBlockReference
  2
TB6
 10
4885.421493575606
 20
1514.747982474914
 30
0.0
 50
270.0
  0
INSERT
  5
1CF8
330
2
100
AcDbEntity
  8
本体
  6
Continuous
100
AcDbBlockReference
  2
TB6
 10
4985.421493575606
 20
1514.747982474914
 30
0.0
 50
270.0
  0
INSERT
  5
1CF9
330
2
100
AcDbEntity
  8
本体
  6
Continuous
100
AcDbBlockReference
  2
TB6
 10
5085.421493575606
 20
1514.747982474914
 30
0.0
 50
270.0
  0
LINE
  5
1CFB
330
2
100
AcDbEntity
  8
本体
  6
Continuous
100
AcDbLine
 10
5165.421493575607
 20
1495.747982474914
 30
0.0
 11
5165.421493575607
 21
1514.747982474914
 31
0.0
  0
LINE
  5
1CFC
330
2
100
AcDbEntity
  8
本体
  6
Continuous
100
AcDbLine
 10
5160.921493575607
 20
1514.747982474914
 30
0.0
 11
5160.921493575607
 21
1495.747982474914
 31
0.0
  0
LINE
  5
1CFD
330
2
100
AcDbEntity
  8
本体
  6
Continuous
100
AcDbLine
 10
5165.421493575607
 20
1514.747982474914
 30
0.0
 11
5160.921493575607
 21
1514.747982474914
 31
0.0
  0
LINE
  5
1CFE
330
2
100
AcDbEntity
  8
本体
  6
Continuous
100
AcDbLine
 10
5160.921493575607
 20
1495.747982474914
 30
0.0
 11
5165.421493575607
 21
1495.747982474914
 31
0.0
  0
LINE
  5
2559
330
2
100
AcDbEntity
  8
エンボス
  6
Continuous
100
AcDbLine
 10
3465.128652219982
 20
851.7807589405622
 30
0.0
 11
3468.128652219982
 21
849.7807589405622
 31
0.0
  0
LINE
  5
2562
330
2
100
AcDbEntity
  8
エンボス
  6
Continuous
100
AcDbLine
 10
3465.128652219982
 20
835.7807589405622
 30
0.0
 11
3468.128652219982
 21
837.7807589405621
 31
0.0
  0
LINE
  5
2563
330
2
100
AcDbEntity
  8
エンボス
  6
Continuous
100
AcDbLine
 10
3468.128652219982
 20
830.7807589405623
 30
0.0
 11
3465.128652219982
 21
832.7807589405622
 31
0.0
  0
LINE
  5
2564
330
2
100
AcDbEntity
  8
エンボス
  6
Continuous
100
AcDbLine
 10
3468.128652219982
 20
846.7807589405621
 30
0.0
 11
3465.128652219982
 21
844.7807589405622
 31
0.0
  0
LINE
  5
2565
330
2
100
AcDbEntity
  8
エンボス
  6
Continuous
100
AcDbLine
 10
3468.128652219982
 20
889.1709602721586
 30
0.0
 11
3465.128652219982
 21
887.1709602721589
 31
0.0
  0
LINE
  5
2566
330
2
100
AcDbEntity
  8
エンボス
  6
Continuous
100
AcDbLine
 10
3465.128652219982
 20
894.1709602721587
 30
0.0
 11
3468.128652219982
 21
892.1709602721588
 31
0.0
  0
LINE
  5
256B
330
2
100
AcDbEntity
  8
エンボス
  6
Continuous
100
AcDbLine
 10
3465.128652219982
 20
863.7807589405623
 30
0.0
 11
3468.128652219982
 21
865.7807589405623
 31
0.0
  0
LINE
  5
256C
330
2
100
AcDbEntity
  8
エンボス
  6
Continuous
100
AcDbLine
 10
3468.128652219982
 20
858.7807589405622
 30
0.0
 11
3465.128652219982
 21
860.7807589405622
 31
0.0
  0
LINE
  5
360C
330
2
100
AcDbEntity
  8
本体
  6
Continuous
100
AcDbLine
 10
3945.128652219982
 20
899.4208662721588
 30
0.0
 11
3945.128652219982
 21
876.9208662721586
 31
0.0
  0
LINE
  5
360D
330
2
100
AcDbEntity
  8
本体
  6
Continuous
100
AcDbLine
 10
3948.128652219983
 20
899.4208662721588
 30
0.0
 11
3948.128652219983
 21
876.9208662721586
 31
0.0
  0
LINE
  5
360E
330
2
100
AcDbEntity
  8
エンボス
  6
Continuous
100
AcDbLine
 10
3945.128652219982
 20
894.1709602721587
 30
0.0
 11
3948.128652219983
 21
892.1709602721588
 31
0.0
  0
LINE
  5
3616
330
2
100
AcDbEntity
  8
本体
  6
Continuous
100
AcDbLine
 10
3945.128652219982
 20
870.9208662721588
 30
0.0
 11
3945.128652219982
 21
826.9208662721586
 31
0.0
  0
LINE
  5
3617
330
2
100
AcDbEntity
  8
本体
  6
Continuous
100
AcDbLine
 10
3948.128652219983
 20
870.9208662721588
 30
0.0
 11
3948.128652219983
 21
826.9208662721586
 31
0.0
  0
LINE
  5
3637
330
2
100
AcDbEntity
  8
エンボス
  6
Continuous
100
AcDbLine
 10
3948.128652219983
 20
858.7807589405622
 30
0.0
 11
3945.128652219982
 21
860.7807589405622
 31
0.0
  0
LINE
  5
3638
330
2
100
AcDbEntity
  8
エンボス
  6
Continuous
100
AcDbLine
 10
3945.128652219982
 20
851.7807589405622
 30
0.0
 11
3948.128652219983
 21
849.7807589405622
 31
0.0
  0
LINE
  5
3639
330
2
100
AcDbEntity
  8
エンボス
  6
Continuous
100
AcDbLine
 10
3945.128652219982
 20
835.7807589405622
 30
0.0
 11
3948.128652219983
 21
837.7807589405621
 31
0.0
  0
LINE
  5
363A
330
2
100
AcDbEntity
  8
エンボス
  6
Continuous
100
AcDbLine
 10
3948.128652219983
 20
830.7807589405623
 30
0.0
 11
3945.128652219982
 21
832.7807589405622
 31
0.0
  0
LINE
  5
363B
330
2
100
AcDbEntity
  8
エンボス
  6
Continuous
100
AcDbLine
 10
3948.128652219983
 20
846.7807589405621
 30
0.0
 11
3945.128652219982
 21
844.7807589405622
 31
0.0
  0
LINE
  5
363C
330
2
100
AcDbEntity
  8
本体
  6
Continuous
100
AcDbLine
 10
3945.128652219982
 20
870.9208662721588
 30
0.0
 11
3965.128652219982
 21
874.9208662721589
 31
0.0
  0
LINE
  5
363D
330
2
100
AcDbEntity
  8
エンボス
  6
Continuous
100
AcDbLine
 10
3945.128652219982
 20
863.7807589405623
 30
0.0
 11
3948.128652219983
 21
865.7807589405623
 31
0.0
  0
LINE
  5
3645
330
2
100
AcDbEntity
  8
エンボス
  6
Continuous
100
AcDbLine
 10
3948.128652219983
 20
889.1709602721586
 30
0.0
 11
3945.128652219982
 21
887.1709602721589
 31
0.0
  0
LINE
  5
39F7
330
2
100
AcDbEntity
  8
エンボス
  6
Continuous
100
AcDbLine
 10
3962.128652219983
 20
894.1709602721587
 30
0.0
 11
3965.128652219983
 21
892.1709602721588
 31
0.0
  0
LINE
  5
39F8
330
2
100
AcDbEntity
  8
本体
  6
Continuous
100
AcDbLine
 10
3965.128652219983
 20
899.4208662721588
 30
0.0
 11
3965.128652219983
 21
876.9208662721586
 31
0.0
  0
LINE
  5
39F9
330
2
100
AcDbEntity
  8
本体
  6
Continuous
100
AcDbLine
 10
3962.128652219983
 20
899.4208662721588
 30
0.0
 11
3962.128652219983
 21
876.9208662721586
 31
0.0
  0
LINE
  5
3A01
330
2
100
AcDbEntity
  8
本体
  6
Continuous
100
AcDbLine
 10
3965.128652219983
 20
870.9208662721588
 30
0.0
 11
3965.128652219983
 21
826.9208662721586
 31
0.0
  0
LINE
  5
3A02
330
2
100
AcDbEntity
  8
本体
  6
Continuous
100
AcDbLine
 10
3962.128652219983
 20
870.9208662721588
 30
0.0
 11
3962.128652219983
 21
826.9208662721586
 31
0.0
  0
LINE
  5
3A20
330
2
100
AcDbEntity
  8
エンボス
  6
Continuous
100
AcDbLine
 10
3965.128652219983
 20
846.7807589405621
 30
0.0
 11
3962.128652219983
 21
844.7807589405622
 31
0.0
  0
LINE
  5
3A21
330
2
100
AcDbEntity
  8
エンボス
  6
Continuous
100
AcDbLine
 10
3965.128652219983
 20
830.7807589405623
 30
0.0
 11
3962.128652219983
 21
832.7807589405622
 31
0.0
  0
LINE
  5
3A22
330
2
100
AcDbEntity
  8
エンボス
  6
Continuous
100
AcDbLine
 10
3962.128652219983
 20
835.7807589405622
 30
0.0
 11
3965.128652219983
 21
837.7807589405621
 31
0.0
  0
LINE
  5
3A23
330
2
100
AcDbEntity
  8
エンボス
  6
Continuous
100
AcDbLine
 10
3962.128652219983
 20
851.7807589405622
 30
0.0
 11
3965.128652219983
 21
849.7807589405622
 31
0.0
  0
LINE
  5
3A24
330
2
100
AcDbEntity
  8
エンボス
  6
Continuous
100
AcDbLine
 10
3965.128652219983
 20
858.7807589405622
 30
0.0
 11
3962.128652219983
 21
860.7807589405622
 31
0.0
  0
LINE
  5
3A29
330
2
100
AcDbEntity
  8
エンボス
  6
Continuous
100
AcDbLine
 10
3962.128652219983
 20
863.7807589405623
 30
0.0
 11
3965.128652219983
 21
865.7807589405623
 31
0.0
  0
LINE
  5
3A2B
330
2
100
AcDbEntity
  8
エンボス
  6
Continuous
100
AcDbLine
 10
3965.128652219983
 20
889.1709602721586
 30
0.0
 11
3962.128652219983
 21
887.1709602721589
 31
0.0
  0
INSERT
  5
3B8A
330
2
100
AcDbEntity
  8
本体
  6
Continuous
100
AcDbBlockReference
  2
TB6
 10
4935.421493575606
 20
1514.747982474914
 30
0.0
 50
270.0
  0
INSERT
  5
3B8B
330
2
100
AcDbEntity
  8
本体
  6
Continuous
100
AcDbBlockReference
  2
TB6
 10
5035.421493575606
 20
1514.747982474914
 30
0.0
 50
270.0
  0
INSERT
  5
3B8C
330
2
100
AcDbEntity
  8
本体
  6
Continuous
100
AcDbBlockReference
  2
TB6
 10
5135.421493575606
 20
1514.747982474914
 30
0.0
 50
270.0
  0
INSERT
  5
3B8D
330
2
100
AcDbEntity
  8
本体
  6
Continuous
100
AcDbBlockReference
  2
TB6
 10
4835.421493575606
 20
1514.747982474914
 30
0.0
 50
270.0
  0
LINE
  5
419B
330
2
100
AcDbEntity
  8
本体
  6
Continuous
100
AcDbLine
 10
3465.128652219982
 20
820.9208662721588
 30
0.0
 11
3965.128652219983
 21
820.9208662721588
 31
0.0
  0
LINE
  5
419C
330
2
100
AcDbEntity
  8
本体
  6
Continuous
100
AcDbLine
 10
3465.128652219982
 20
826.9208662721586
 30
0.0
 11
3965.128652219983
 21
826.9208662721586
 31
0.0
  0
LINE
  5
419F
330
2
100
AcDbEntity
  8
本体
  6
Continuous
100
AcDbLine
 10
3465.128652219982
 20
820.9208662721588
 30
0.0
 11
3495.128652219982
 21
826.9208662721586
 31
0.0
  0
LINE
  5
41A0
330
2
100
AcDbEntity
  8
本体
  6
Continuous
100
AcDbLine
 10
3468.128652219982
 20
820.9208662721588
 30
0.0
 11
3468.128652219982
 21
776.9208662721588
 31
0.0
  0
LINE
  5
41A1
330
2
100
AcDbEntity
  8
本体
  6
Continuous
100
AcDbLine
 10
3465.128652219982
 20
820.9208662721588
 30
0.0
 11
3465.128652219982
 21
776.9208662721588
 31
0.0
  0
LINE
  5
41A2
330
2
100
AcDbEntity
  8
エンボス
  6
Continuous
100
AcDbLine
 10
3468.128652219982
 20
796.7807589405622
 30
0.0
 11
3465.128652219982
 21
794.7807589405622
 31
0.0
  0
LINE
  5
41A3
330
2
100
AcDbEntity
  8
エンボス
  6
Continuous
100
AcDbLine
 10
3468.128652219982
 20
780.7807589405622
 30
0.0
 11
3465.128652219982
 21
782.7807589405622
 31
0.0
  0
LINE
  5
41A4
330
2
100
AcDbEntity
  8
エンボス
  6
Continuous
100
AcDbLine
 10
3465.128652219982
 20
785.7807589405622
 30
0.0
 11
3468.128652219982
 21
787.7807589405622
 31
0.0
  0
LINE
  5
41A5
330
2
100
AcDbEntity
  8
エンボス
  6
Continuous
100
AcDbLine
 10
3465.128652219982
 20
801.7807589405622
 30
0.0
 11
3468.128652219982
 21
799.7807589405622
 31
0.0
  0
LINE
  5
41A6
330
2
100
AcDbEntity
  8
エンボス
  6
Continuous
100
AcDbLine
 10
3468.128652219982
 20
808.7807589405622
 30
0.0
 11
3465.128652219982
 21
810.7807589405622
 31
0.0
  0
LINE
  5
41A7
330
2
100
AcDbEntity
  8
エンボス
  6
Continuous
100
AcDbLine
 10
3465.128652219982
 20
813.7807589405621
 30
0.0
 11
3468.128652219982
 21
815.7807589405623
 31
0.0
  0
LINE
  5
41A8
330
2
100
AcDbEntity
  8
本体
  6
Continuous
100
AcDbLine
 10
3465.128652219982
 20
826.9208662721586
 30
0.0
 11
3465.128652219982
 21
820.9208662721588
 31
0.0
  0
LINE
  5
4227
330
2
100
AcDbEntity
  8
本体
  6
Continuous
100
AcDbLine
 10
3945.128652219982
 20
820.9208662721588
 30
0.0
 11
3965.128652219982
 21
824.9208662721589
 31
0.0
  0
LINE
  5
4228
330
2
100
AcDbEntity
  8
本体
  6
Continuous
100
AcDbLine
 10
3948.128652219983
 20
820.9208662721588
 30
0.0
 11
3948.128652219983
 21
776.9208662721588
 31
0.0
  0
LINE
  5
4229
330
2
100
AcDbEntity
  8
本体
  6
Continuous
100
AcDbLine
 10
3945.128652219982
 20
820.9208662721588
 30
0.0
 11
3945.128652219982
 21
776.9208662721588
 31
0.0
  0
LINE
  5
4230
330
2
100
AcDbEntity
  8
エンボス
  6
Continuous
100
AcDbLine
 10
3948.128652219983
 20
796.7807589405622
 30
0.0
 11
3945.128652219982
 21
794.7807589405622
 31
0.0
  0
LINE
  5
4231
330
2
100
AcDbEntity
  8
エンボス
  6
Continuous
100
AcDbLine
 10
3948.128652219983
 20
780.7807589405622
 30
0.0
 11
3945.128652219982
 21
782.7807589405622
 31
0.0
  0
LINE
  5
4232
330
2
100
AcDbEntity
  8
エンボス
  6
Continuous
100
AcDbLine
 10
3945.128652219982
 20
785.7807589405622
 30
0.0
 11
3948.128652219983
 21
787.7807589405622
 31
0.0
  0
LINE
  5
4233
330
2
100
AcDbEntity
  8
エンボス
  6
Continuous
100
AcDbLine
 10
3945.128652219982
 20
801.7807589405622
 30
0.0
 11
3948.128652219983
 21
799.7807589405622
 31
0.0
  0
LINE
  5
4237
330
2
100
AcDbEntity
  8
エンボス
  6
Continuous
100
AcDbLine
 10
3948.128652219983
 20
808.7807589405622
 30
0.0
 11
3945.128652219982
 21
810.7807589405622
 31
0.0
  0
LINE
  5
4238
330
2
100
AcDbEntity
  8
エンボス
  6
Continuous
100
AcDbLine
 10
3945.128652219982
 20
813.7807589405621
 30
0.0
 11
3948.128652219983
 21
815.7807589405623
 31
0.0
  0
LINE
  5
42C7
330
2
100
AcDbEntity
  8
本体
  6
Continuous
100
AcDbLine
 10
3962.128652219983
 20
820.9208662721588
 30
0.0
 11
3962.128652219983
 21
776.9208662721588
 31
0.0
  0
LINE
  5
42C8
330
2
100
AcDbEntity
  8
本体
  6
Continuous
100
AcDbLine
 10
3965.128652219983
 20
820.9208662721588
 30
0.0
 11
3965.128652219983
 21
776.9208662721588
 31
0.0
  0
LINE
  5
42C9
330
2
100
AcDbEntity
  8
エンボス
  6
Continuous
100
AcDbLine
 10
3962.128652219983
 20
785.7807589405622
 30
0.0
 11
3965.128652219983
 21
787.7807589405622
 31
0.0
  0
LINE
  5
42CA
330
2
100
AcDbEntity
  8
エンボス
  6
Continuous
100
AcDbLine
 10
3965.128652219983
 20
780.7807589405622
 30
0.0
 11
3962.128652219983
 21
782.7807589405622
 31
0.0
  0
LINE
  5
42CB
330
2
100
AcDbEntity
  8
エンボス
  6
Continuous
100
AcDbLine
 10
3965.128652219983
 20
796.7807589405622
 30
0.0
 11
3962.128652219983
 21
794.7807589405622
 31
0.0
  0
LINE
  5
42CC
330
2
100
AcDbEntity
  8
エンボス
  6
Continuous
100
AcDbLine
 10
3962.128652219983
 20
801.7807589405622
 30
0.0
 11
3965.128652219983
 21
799.7807589405622
 31
0.0
  0
LINE
  5
42CD
330
2
100
AcDbEntity
  8
エンボス
  6
Continuous
100
AcDbLine
 10
3965.128652219983
 20
808.7807589405622
 30
0.0
 11
3962.128652219983
 21
810.7807589405622
 31
0.0
  0
LINE
  5
42CE
330
2
100
AcDbEntity
  8
エンボス
  6
Continuous
100
AcDbLine
 10
3962.128652219983
 20
813.7807589405621
 30
0.0
 11
3965.128652219983
 21
815.7807589405623
 31
0.0
  0
LINE
  5
42CF
330
2
100
AcDbEntity
  8
本体
  6
Continuous
100
AcDbLine
 10
3465.128652219982
 20
770.9208662721588
 30
0.0
 11
3965.128652219983
 21
770.9208662721588
 31
0.0
  0
LINE
  5
42D0
330
2
100
AcDbEntity
  8
本体
  6
Continuous
100
AcDbLine
 10
3465.128652219982
 20
776.9208662721588
 30
0.0
 11
3965.128652219983
 21
776.9208662721588
 31
0.0
  0
LINE
  5
42D3
330
2
100
AcDbEntity
  8
本体
  6
Continuous
100
AcDbLine
 10
3465.128652219982
 20
770.9208662721588
 30
0.0
 11
3495.128652219982
 21
776.9208662721588
 31
0.0
  0
LINE
  5
42D4
330
2
100
AcDbEntity
  8
本体
  6
Continuous
100
AcDbLine
 10
3468.128652219982
 20
770.9208662721588
 30
0.0
 11
3468.128652219982
 21
726.9208662721588
 31
0.0
  0
LINE
  5
42D5
330
2
100
AcDbEntity
  8
本体
  6
Continuous
100
AcDbLine
 10
3465.128652219982
 20
770.9208662721588
 30
0.0
 11
3465.128652219982
 21
726.9208662721588
 31
0.0
  0
LINE
  5
42D6
330
2
100
AcDbEntity
  8
エンボス
  6
Continuous
100
AcDbLine
 10
3468.128652219982
 20
746.7807589405622
 30
0.0
 11
3465.128652219982
 21
744.7807589405622
 31
0.0
  0
LINE
  5
42D7
330
2
100
AcDbEntity
  8
エンボス
  6
Continuous
100
AcDbLine
 10
3468.128652219982
 20
730.7807589405622
 30
0.0
 11
3465.128652219982
 21
732.7807589405622
 31
0.0
  0
LINE
  5
42D8
330
2
100
AcDbEntity
  8
エンボス
  6
Continuous
100
AcDbLine
 10
3465.128652219982
 20
735.7807589405622
 30
0.0
 11
3468.128652219982
 21
737.7807589405622
 31
0.0
  0
LINE
  5
42D9
330
2
100
AcDbEntity
  8
エンボス
  6
Continuous
100
AcDbLine
 10
3465.128652219982
 20
751.7807589405622
 30
0.0
 11
3468.128652219982
 21
749.7807589405622
 31
0.0
  0
LINE
  5
42DA
330
2
100
AcDbEntity
  8
エンボス
  6
Continuous
100
AcDbLine
 10
3468.128652219982
 20
758.7807589405622
 30
0.0
 11
3465.128652219982
 21
760.7807589405622
 31
0.0
  0
LINE
  5
42DB
330
2
100
AcDbEntity
  8
エンボス
  6
Continuous
100
AcDbLine
 10
3465.128652219982
 20
763.7807589405622
 30
0.0
 11
3468.128652219982
 21
765.7807589405622
 31
0.0
  0
LINE
  5
42DC
330
2
100
AcDbEntity
  8
本体
  6
Continuous
100
AcDbLine
 10
3465.128652219982
 20
776.9208662721588
 30
0.0
 11
3465.128652219982
 21
770.9208662721588
 31
0.0
  0
LINE
  5
435B
330
2
100
AcDbEntity
  8
本体
  6
Continuous
100
AcDbLine
 10
3945.128652219982
 20
770.9208662721588
 30
0.0
 11
3965.128652219982
 21
774.9208662721588
 31
0.0
  0
LINE
  5
435C
330
2
100
AcDbEntity
  8
本体
  6
Continuous
100
AcDbLine
 10
3948.128652219983
 20
770.9208662721588
 30
0.0
 11
3948.128652219983
 21
726.9208662721588
 31
0.0
  0
LINE
  5
435D
330
2
100
AcDbEntity
  8
本体
  6
Continuous
100
AcDbLine
 10
3945.128652219982
 20
770.9208662721588
 30
0.0
 11
3945.128652219982
 21
726.9208662721588
 31
0.0
  0
LINE
  5
4364
330
2
100
AcDbEntity
  8
エンボス
  6
Continuous
100
AcDbLine
 10
3948.128652219983
 20
746.7807589405622
 30
0.0
 11
3945.128652219982
 21
744.7807589405622
 31
0.0
  0
LINE
  5
4365
330
2
100
AcDbEntity
  8
エンボス
  6
Continuous
100
AcDbLine
 10
3948.128652219983
 20
730.7807589405622
 30
0.0
 11
3945.128652219982
 21
732.7807589405622
 31
0.0
  0
LINE
  5
4366
330
2
100
AcDbEntity
  8
エンボス
  6
Continuous
100
AcDbLine
 10
3945.128652219982
 20
735.7807589405622
 30
0.0
 11
3948.128652219983
 21
737.7807589405622
 31
0.0
  0
LINE
  5
4367
330
2
100
AcDbEntity
  8
エンボス
  6
Continuous
100
AcDbLine
 10
3945.128652219982
 20
751.7807589405622
 30
0.0
 11
3948.128652219983
 21
749.7807589405622
 31
0.0
  0
LINE
  5
436B
330
2
100
AcDbEntity
  8
エンボス
  6
Continuous
100
AcDbLine
 10
3948.128652219983
 20
758.7807589405622
 30
0.0
 11
3945.128652219982
 21
760.7807589405622
 31
0.0
  0
LINE
  5
436C
330
2
100
AcDbEntity
  8
エンボス
  6
Continuous
100
AcDbLine
 10
3945.128652219982
 20
763.7807589405622
 30
0.0
 11
3948.128652219983
 21
765.7807589405622
 31
0.0
  0
LINE
  5
43FB
330
2
100
AcDbEntity
  8
本体
  6
Continuous
100
AcDbLine
 10
3962.128652219983
 20
770.9208662721588
 30
0.0
 11
3962.128652219983
 21
726.9208662721588
 31
0.0
  0
LINE
  5
43FC
330
2
100
AcDbEntity
  8
本体
  6
Continuous
100
AcDbLine
 10
3965.128652219983
 20
770.9208662721588
 30
0.0
 11
3965.128652219983
 21
726.9208662721588
 31
0.0
  0
LINE
  5
43FD
330
2
100
AcDbEntity
  8
エンボス
  6
Continuous
100
AcDbLine
 10
3962.128652219983
 20
735.7807589405622
 30
0.0
 11
3965.128652219983
 21
737.7807589405622
 31
0.0
  0
LINE
  5
43FE
330
2
100
AcDbEntity
  8
エンボス
  6
Continuous
100
AcDbLine
 10
3965.128652219983
 20
730.7807589405622
 30
0.0
 11
3962.128652219983
 21
732.7807589405622
 31
0.0
  0
LINE
  5
43FF
330
2
100
AcDbEntity
  8
エンボス
  6
Continuous
100
AcDbLine
 10
3965.128652219983
 20
746.7807589405622
 30
0.0
 11
3962.128652219983
 21
744.7807589405622
 31
0.0
  0
LINE
  5
4400
330
2
100
AcDbEntity
  8
エンボス
  6
Continuous
100
AcDbLine
 10
3962.128652219983
 20
751.7807589405622
 30
0.0
 11
3965.128652219983
 21
749.7807589405622
 31
0.0
  0
LINE
  5
4401
330
2
100
AcDbEntity
  8
エンボス
  6
Continuous
100
AcDbLine
 10
3965.128652219983
 20
758.7807589405622
 30
0.0
 11
3962.128652219983
 21
760.7807589405622
 31
0.0
  0
LINE
  5
4402
330
2
100
AcDbEntity
  8
エンボス
  6
Continuous
100
AcDbLine
 10
3962.128652219983
 20
763.7807589405622
 30
0.0
 11
3965.128652219983
 21
765.7807589405622
 31
0.0
  0
LINE
  5
4403
330
2
100
AcDbEntity
  8
本体
  6
Continuous
100
AcDbLine
 10
3465.128652219982
 20
720.9208662721588
 30
0.0
 11
3965.128652219983
 21
720.9208662721588
 31
0.0
  0
LINE
  5
4404
330
2
100
AcDbEntity
  8
本体
  6
Continuous
100
AcDbLine
 10
3465.128652219982
 20
726.9208662721588
 30
0.0
 11
3965.128652219983
 21
726.9208662721588
 31
0.0
  0
LINE
  5
4407
330
2
100
AcDbEntity
  8
本体
  6
Continuous
100
AcDbLine
 10
3465.128652219982
 20
720.9208662721588
 30
0.0
 11
3495.128652219982
 21
726.9208662721588
 31
0.0
  0
LINE
  5
4408
330
2
100
AcDbEntity
  8
本体
  6
Continuous
100
AcDbLine
 10
3468.128652219982
 20
720.9208662721588
 30
0.0
 11
3468.128652219982
 21
676.9208662721587
 31
0.0
  0
LINE
  5
4409
330
2
100
AcDbEntity
  8
本体
  6
Continuous
100
AcDbLine
 10
3465.128652219982
 20
720.9208662721588
 30
0.0
 11
3465.128652219982
 21
676.9208662721587
 31
0.0
  0
LINE
  5
440A
330
2
100
AcDbEntity
  8
エンボス
  6
Continuous
100
AcDbLine
 10
3468.128652219982
 20
696.7807589405622
 30
0.0
 11
3465.128652219982
 21
694.7807589405622
 31
0.0
  0
LINE
  5
440B
330
2
100
AcDbEntity
  8
エンボス
  6
Continuous
100
AcDbLine
 10
3468.128652219982
 20
680.7807589405622
 30
0.0
 11
3465.128652219982
 21
682.7807589405622
 31
0.0
  0
LINE
  5
440C
330
2
100
AcDbEntity
  8
エンボス
  6
Continuous
100
AcDbLine
 10
3465.128652219982
 20
685.7807589405622
 30
0.0
 11
3468.128652219982
 21
687.7807589405622
 31
0.0
  0
LINE
  5
440D
330
2
100
AcDbEntity
  8
エンボス
  6
Continuous
100
AcDbLine
 10
3465.128652219982
 20
701.7807589405622
 30
0.0
 11
3468.128652219982
 21
699.7807589405622
 31
0.0
  0
LINE
  5
440E
330
2
100
AcDbEntity
  8
エンボス
  6
Continuous
100
AcDbLine
 10
3468.128652219982
 20
708.7807589405622
 30
0.0
 11
3465.128652219982
 21
710.7807589405622
 31
0.0
  0
LINE
  5
440F
330
2
100
AcDbEntity
  8
エンボス
  6
Continuous
100
AcDbLine
 10
3465.128652219982
 20
713.7807589405622
 30
0.0
 11
3468.128652219982
 21
715.7807589405622
 31
0.0
  0
LINE
  5
4410
330
2
100
AcDbEntity
  8
本体
  6
Continuous
100
AcDbLine
 10
3465.128652219982
 20
726.9208662721588
 30
0.0
 11
3465.128652219982
 21
720.9208662721588
 31
0.0
  0
LINE
  5
448F
330
2
100
AcDbEntity
  8
本体
  6
Continuous
100
AcDbLine
 10
3945.128652219982
 20
720.9208662721588
 30
0.0
 11
3965.128652219982
 21
724.9208662721588
 31
0.0
  0
LINE
  5
4490
330
2
100
AcDbEntity
  8
本体
  6
Continuous
100
AcDbLine
 10
3948.128652219983
 20
720.9208662721588
 30
0.0
 11
3948.128652219983
 21
676.9208662721587
 31
0.0
  0
LINE
  5
4491
330
2
100
AcDbEntity
  8
本体
  6
Continuous
100
AcDbLine
 10
3945.128652219982
 20
720.9208662721588
 30
0.0
 11
3945.128652219982
 21
676.9208662721587
 31
0.0
  0
LINE
  5
4498
330
2
100
AcDbEntity
  8
エンボス
  6
Continuous
100
AcDbLine
 10
3948.128652219983
 20
696.7807589405622
 30
0.0
 11
3945.128652219982
 21
694.7807589405622
 31
0.0
  0
LINE
  5
4499
330
2
100
AcDbEntity
  8
エンボス
  6
Continuous
100
AcDbLine
 10
3948.128652219983
 20
680.7807589405622
 30
0.0
 11
3945.128652219982
 21
682.7807589405622
 31
0.0
  0
LINE
  5
449A
330
2
100
AcDbEntity
  8
エンボス
  6
Continuous
100
AcDbLine
 10
3945.128652219982
 20
685.7807589405622
 30
0.0
 11
3948.128652219983
 21
687.7807589405622
 31
0.0
  0
LINE
  5
449B
330
2
100
AcDbEntity
  8
エンボス
  6
Continuous
100
AcDbLine
 10
3945.128652219982
 20
701.7807589405622
 30
0.0
 11
3948.128652219983
 21
699.7807589405622
 31
0.0
  0
LINE
  5
449F
330
2
100
AcDbEntity
  8
エンボス
  6
Continuous
100
AcDbLine
 10
3948.128652219983
 20
708.7807589405622
 30
0.0
 11
3945.128652219982
 21
710.7807589405622
 31
0.0
  0
LINE
  5
44A0
330
2
100
AcDbEntity
  8
エンボス
  6
Continuous
100
AcDbLine
 10
3945.128652219982
 20
713.7807589405622
 30
0.0
 11
3948.128652219983
 21
715.7807589405622
 31
0.0
  0
LINE
  5
452F
330
2
100
AcDbEntity
  8
本体
  6
Continuous
100
AcDbLine
 10
3962.128652219983
 20
720.9208662721588
 30
0.0
 11
3962.128652219983
 21
676.9208662721587
 31
0.0
  0
LINE
  5
4530
330
2
100
AcDbEntity
  8
本体
  6
Continuous
100
AcDbLine
 10
3965.128652219983
 20
720.9208662721588
 30
0.0
 11
3965.128652219983
 21
676.9208662721587
 31
0.0
  0
LINE
  5
4531
330
2
100
AcDbEntity
  8
エンボス
  6
Continuous
100
AcDbLine
 10
3962.128652219983
 20
685.7807589405622
 30
0.0
 11
3965.128652219983
 21
687.7807589405622
 31
0.0
  0
LINE
  5
4532
330
2
100
AcDbEntity
  8
エンボス
  6
Continuous
100
AcDbLine
 10
3965.128652219983
 20
680.7807589405622
 30
0.0
 11
3962.128652219983
 21
682.7807589405622
 31
0.0
  0
LINE
  5
4533
330
2
100
AcDbEntity
  8
エンボス
  6
Continuous
100
AcDbLine
 10
3965.128652219983
 20
696.7807589405622
 30
0.0
 11
3962.128652219983
 21
694.7807589405622
 31
0.0
  0
LINE
  5
4534
330
2
100
AcDbEntity
  8
エンボス
  6
Continuous
100
AcDbLine
 10
3962.128652219983
 20
701.7807589405622
 30
0.0
 11
3965.128652219983
 21
699.7807589405622
 31
0.0
  0
LINE
  5
4535
330
2
100
AcDbEntity
  8
エンボス
  6
Continuous
100
AcDbLine
 10
3965.128652219983
 20
708.7807589405622
 30
0.0
 11
3962.128652219983
 21
710.7807589405622
 31
0.0
  0
LINE
  5
4536
330
2
100
AcDbEntity
  8
エンボス
  6
Continuous
100
AcDbLine
 10
3962.128652219983
 20
713.7807589405622
 30
0.0
 11
3965.128652219983
 21
715.7807589405622
 31
0.0
  0
LINE
  5
4537
330
2
100
AcDbEntity
  8
本体
  6
Continuous
100
AcDbLine
 10
3465.128652219982
 20
670.9208662721587
 30
0.0
 11
3965.128652219983
 21
670.9208662721587
 31
0.0
  0
LINE
  5
4538
330
2
100
AcDbEntity
  8
本体
  6
Continuous
100
AcDbLine
 10
3465.128652219982
 20
676.9208662721587
 30
0.0
 11
3965.128652219983
 21
676.9208662721587
 31
0.0
  0
LINE
  5
453B
330
2
100
AcDbEntity
  8
本体
  6
Continuous
100
AcDbLine
 10
3465.128652219982
 20
670.9208662721587
 30
0.0
 11
3495.128652219982
 21
676.9208662721587
 31
0.0
  0
LINE
  5
453C
330
2
100
AcDbEntity
  8
本体
  6
Continuous
100
AcDbLine
 10
3468.128652219982
 20
670.9208662721587
 30
0.0
 11
3468.128652219982
 21
626.9208662721587
 31
0.0
  0
LINE
  5
453D
330
2
100
AcDbEntity
  8
本体
  6
Continuous
100
AcDbLine
 10
3465.128652219982
 20
670.9208662721587
 30
0.0
 11
3465.128652219982
 21
626.9208662721587
 31
0.0
  0
LINE
  5
453E
330
2
100
AcDbEntity
  8
エンボス
  6
Continuous
100
AcDbLine
 10
3468.128652219982
 20
646.7807589405622
 30
0.0
 11
3465.128652219982
 21
644.7807589405622
 31
0.0
  0
LINE
  5
453F
330
2
100
AcDbEntity
  8
エンボス
  6
Continuous
100
AcDbLine
 10
3468.128652219982
 20
630.7807589405622
 30
0.0
 11
3465.128652219982
 21
632.7807589405622
 31
0.0
  0
LINE
  5
4540
330
2
100
AcDbEntity
  8
エンボス
  6
Continuous
100
AcDbLine
 10
3465.128652219982
 20
635.7807589405622
 30
0.0
 11
3468.128652219982
 21
637.7807589405622
 31
0.0
  0
LINE
  5
4541
330
2
100
AcDbEntity
  8
エンボス
  6
Continuous
100
AcDbLine
 10
3465.128652219982
 20
651.7807589405622
 30
0.0
 11
3468.128652219982
 21
649.7807589405622
 31
0.0
  0
LINE
  5
4542
330
2
100
AcDbEntity
  8
エンボス
  6
Continuous
100
AcDbLine
 10
3468.128652219982
 20
658.7807589405622
 30
0.0
 11
3465.128652219982
 21
660.7807589405622
 31
0.0
  0
LINE
  5
4543
330
2
100
AcDbEntity
  8
エンボス
  6
Continuous
100
AcDbLine
 10
3465.128652219982
 20
663.7807589405622
 30
0.0
 11
3468.128652219982
 21
665.7807589405622
 31
0.0
  0
LINE
  5
4544
330
2
100
AcDbEntity
  8
本体
  6
Continuous
100
AcDbLine
 10
3465.128652219982
 20
676.9208662721587
 30
0.0
 11
3465.128652219982
 21
670.9208662721587
 31
0.0
  0
LINE
  5
45C3
330
2
100
AcDbEntity
  8
本体
  6
Continuous
100
AcDbLine
 10
3945.128652219982
 20
670.9208662721587
 30
0.0
 11
3965.128652219982
 21
674.9208662721587
 31
0.0
  0
LINE
  5
45C4
330
2
100
AcDbEntity
  8
本体
  6
Continuous
100
AcDbLine
 10
3948.128652219983
 20
670.9208662721587
 30
0.0
 11
3948.128652219983
 21
626.9208662721587
 31
0.0
  0
LINE
  5
45C5
330
2
100
AcDbEntity
  8
本体
  6
Continuous
100
AcDbLine
 10
3945.128652219982
 20
670.9208662721587
 30
0.0
 11
3945.128652219982
 21
626.9208662721587
 31
0.0
  0
LINE
  5
45CC
330
2
100
AcDbEntity
  8
エンボス
  6
Continuous
100
AcDbLine
 10
3948.128652219983
 20
646.7807589405622
 30
0.0
 11
3945.128652219982
 21
644.7807589405622
 31
0.0
  0
LINE
  5
45CD
330
2
100
AcDbEntity
  8
エンボス
  6
Continuous
100
AcDbLine
 10
3948.128652219983
 20
630.7807589405622
 30
0.0
 11
3945.128652219982
 21
632.7807589405622
 31
0.0
  0
LINE
  5
45CE
330
2
100
AcDbEntity
  8
エンボス
  6
Continuous
100
AcDbLine
 10
3945.128652219982
 20
635.7807589405622
 30
0.0
 11
3948.128652219983
 21
637.7807589405622
 31
0.0
  0
LINE
  5
45CF
330
2
100
AcDbEntity
  8
エンボス
  6
Continuous
100
AcDbLine
 10
3945.128652219982
 20
651.7807589405622
 30
0.0
 11
3948.128652219983
 21
649.7807589405622
 31
0.0
  0
LINE
  5
45D3
330
2
100
AcDbEntity
  8
エンボス
  6
Continuous
100
AcDbLine
 10
3948.128652219983
 20
658.7807589405622
 30
0.0
 11
3945.128652219982
 21
660.7807589405622
 31
0.0
  0
LINE
  5
45D4
330
2
100
AcDbEntity
  8
エンボス
  6
Continuous
100
AcDbLine
 10
3945.128652219982
 20
663.7807589405622
 30
0.0
 11
3948.128652219983
 21
665.7807589405622
 31
0.0
  0
LINE
  5
4663
330
2
100
AcDbEntity
  8
本体
  6
Continuous
100
AcDbLine
 10
3962.128652219983
 20
670.9208662721587
 30
0.0
 11
3962.128652219983
 21
626.9208662721587
 31
0.0
  0
LINE
  5
4664
330
2
100
AcDbEntity
  8
本体
  6
Continuous
100
AcDbLine
 10
3965.128652219983
 20
670.9208662721587
 30
0.0
 11
3965.128652219983
 21
626.9208662721587
 31
0.0
  0
LINE
  5
4665
330
2
100
AcDbEntity
  8
エンボス
  6
Continuous
100
AcDbLine
 10
3962.128652219983
 20
635.7807589405622
 30
0.0
 11
3965.128652219983
 21
637.7807589405622
 31
0.0
  0
LINE
  5
4666
330
2
100
AcDbEntity
  8
エンボス
  6
Continuous
100
AcDbLine
 10
3965.128652219983
 20
630.7807589405622
 30
0.0
 11
3962.128652219983
 21
632.7807589405622
 31
0.0
  0
LINE
  5
4667
330
2
100
AcDbEntity
  8
エンボス
  6
Continuous
100
AcDbLine
 10
3965.128652219983
 20
646.7807589405622
 30
0.0
 11
3962.128652219983
 21
644.7807589405622
 31
0.0
  0
LINE
  5
4668
330
2
100
AcDbEntity
  8
エンボス
  6
Continuous
100
AcDbLine
 10
3962.128652219983
 20
651.7807589405622
 30
0.0
 11
3965.128652219983
 21
649.7807589405622
 31
0.0
  0
LINE
  5
4669
330
2
100
AcDbEntity
  8
エンボス
  6
Continuous
100
AcDbLine
 10
3965.128652219983
 20
658.7807589405622
 30
0.0
 11
3962.128652219983
 21
660.7807589405622
 31
0.0
  0
LINE
  5
466A
330
2
100
AcDbEntity
  8
エンボス
  6
Continuous
100
AcDbLine
 10
3962.128652219983
 20
663.7807589405622
 30
0.0
 11
3965.128652219983
 21
665.7807589405622
 31
0.0
  0
LINE
  5
466B
330
2
100
AcDbEntity
  8
本体
  6
Continuous
100
AcDbLine
 10
3465.128652219982
 20
620.9208662721587
 30
0.0
 11
3965.128652219983
 21
620.9208662721587
 31
0.0
  0
LINE
  5
466C
330
2
100
AcDbEntity
  8
本体
  6
Continuous
100
AcDbLine
 10
3465.128652219982
 20
626.9208662721587
 30
0.0
 11
3965.128652219983
 21
626.9208662721587
 31
0.0
  0
LINE
  5
466F
330
2
100
AcDbEntity
  8
本体
  6
Continuous
100
AcDbLine
 10
3465.128652219982
 20
620.9208662721587
 30
0.0
 11
3495.128652219982
 21
626.9208662721587
 31
0.0
  0
LINE
  5
4670
330
2
100
AcDbEntity
  8
本体
  6
Continuous
100
AcDbLine
 10
3468.128652219982
 20
620.9208662721587
 30
0.0
 11
3468.128652219982
 21
576.9208662721587
 31
0.0
  0
LINE
  5
4671
330
2
100
AcDbEntity
  8
本体
  6
Continuous
100
AcDbLine
 10
3465.128652219982
 20
620.9208662721587
 30
0.0
 11
3465.128652219982
 21
576.9208662721587
 31
0.0
  0
LINE
  5
4672
330
2
100
AcDbEntity
  8
エンボス
  6
Continuous
100
AcDbLine
 10
3468.128652219982
 20
596.7807589405622
 30
0.0
 11
3465.128652219982
 21
594.7807589405622
 31
0.0
  0
LINE
  5
4673
330
2
100
AcDbEntity
  8
エンボス
  6
Continuous
100
AcDbLine
 10
3468.128652219982
 20
580.7807589405622
 30
0.0
 11
3465.128652219982
 21
582.7807589405622
 31
0.0
  0
LINE
  5
4674
330
2
100
AcDbEntity
  8
エンボス
  6
Continuous
100
AcDbLine
 10
3465.128652219982
 20
585.7807589405622
 30
0.0
 11
3468.128652219982
 21
587.7807589405622
 31
0.0
  0
LINE
  5
4675
330
2
100
AcDbEntity
  8
エンボス
  6
Continuous
100
AcDbLine
 10
3465.128652219982
 20
601.7807589405622
 30
0.0
 11
3468.128652219982
 21
599.7807589405622
 31
0.0
  0
LINE
  5
4676
330
2
100
AcDbEntity
  8
エンボス
  6
Continuous
100
AcDbLine
 10
3468.128652219982
 20
608.7807589405622
 30
0.0
 11
3465.128652219982
 21
610.7807589405622
 31
0.0
  0
LINE
  5
4677
330
2
100
AcDbEntity
  8
エンボス
  6
Continuous
100
AcDbLine
 10
3465.128652219982
 20
613.7807589405622
 30
0.0
 11
3468.128652219982
 21
615.7807589405622
 31
0.0
  0
LINE
  5
4678
330
2
100
AcDbEntity
  8
本体
  6
Continuous
100
AcDbLine
 10
3465.128652219982
 20
626.9208662721587
 30
0.0
 11
3465.128652219982
 21
620.9208662721587
 31
0.0
  0
LINE
  5
46F7
330
2
100
AcDbEntity
  8
本体
  6
Continuous
100
AcDbLine
 10
3945.128652219982
 20
620.9208662721587
 30
0.0
 11
3965.128652219982
 21
624.9208662721587
 31
0.0
  0
LINE
  5
46F8
330
2
100
AcDbEntity
  8
本体
  6
Continuous
100
AcDbLine
 10
3948.128652219983
 20
620.9208662721587
 30
0.0
 11
3948.128652219983
 21
576.9208662721587
 31
0.0
  0
LINE
  5
46F9
330
2
100
AcDbEntity
  8
本体
  6
Continuous
100
AcDbLine
 10
3945.128652219982
 20
620.9208662721587
 30
0.0
 11
3945.128652219982
 21
576.9208662721587
 31
0.0
  0
LINE
  5
4700
330
2
100
AcDbEntity
  8
エンボス
  6
Continuous
100
AcDbLine
 10
3948.128652219983
 20
596.7807589405622
 30
0.0
 11
3945.128652219982
 21
594.7807589405622
 31
0.0
  0
LINE
  5
4701
330
2
100
AcDbEntity
  8
エンボス
  6
Continuous
100
AcDbLine
 10
3948.128652219983
 20
580.7807589405622
 30
0.0
 11
3945.128652219982
 21
582.7807589405622
 31
0.0
  0
LINE
  5
4702
330
2
100
AcDbEntity
  8
エンボス
  6
Continuous
100
AcDbLine
 10
3945.128652219982
 20
585.7807589405622
 30
0.0
 11
3948.128652219983
 21
587.7807589405622
 31
0.0
  0
LINE
  5
4703
330
2
100
AcDbEntity
  8
エンボス
  6
Continuous
100
AcDbLine
 10
3945.128652219982
 20
601.7807589405622
 30
0.0
 11
3948.128652219983
 21
599.7807589405622
 31
0.0
  0
LINE
  5
4707
330
2
100
AcDbEntity
  8
エンボス
  6
Continuous
100
AcDbLine
 10
3948.128652219983
 20
608.7807589405622
 30
0.0
 11
3945.128652219982
 21
610.7807589405622
 31
0.0
  0
LINE
  5
4708
330
2
100
AcDbEntity
  8
エンボス
  6
Continuous
100
AcDbLine
 10
3945.128652219982
 20
613.7807589405622
 30
0.0
 11
3948.128652219983
 21
615.7807589405622
 31
0.0
  0
LINE
  5
4797
330
2
100
AcDbEntity
  8
本体
  6
Continuous
100
AcDbLine
 10
3962.128652219983
 20
620.9208662721587
 30
0.0
 11
3962.128652219983
 21
576.9208662721587
 31
0.0
  0
LINE
  5
4798
330
2
100
AcDbEntity
  8
本体
  6
Continuous
100
AcDbLine
 10
3965.128652219983
 20
620.9208662721587
 30
0.0
 11
3965.128652219983
 21
576.9208662721587
 31
0.0
  0
LINE
  5
4799
330
2
100
AcDbEntity
  8
エンボス
  6
Continuous
100
AcDbLine
 10
3962.128652219983
 20
585.7807589405622
 30
0.0
 11
3965.128652219983
 21
587.7807589405622
 31
0.0
  0
LINE
  5
479A
330
2
100
AcDbEntity
  8
エンボス
  6
Continuous
100
AcDbLine
 10
3965.128652219983
 20
580.7807589405622
 30
0.0
 11
3962.128652219983
 21
582.7807589405622
 31
0.0
  0
LINE
  5
479B
330
2
100
AcDbEntity
  8
エンボス
  6
Continuous
100
AcDbLine
 10
3965.128652219983
 20
596.7807589405622
 30
0.0
 11
3962.128652219983
 21
594.7807589405622
 31
0.0
  0
LINE
  5
479C
330
2
100
AcDbEntity
  8
エンボス
  6
Continuous
100
AcDbLine
 10
3962.128652219983
 20
601.7807589405622
 30
0.0
 11
3965.128652219983
 21
599.7807589405622
 31
0.0
  0
LINE
  5
479D
330
2
100
AcDbEntity
  8
エンボス
  6
Continuous
100
AcDbLine
 10
3965.128652219983
 20
608.7807589405622
 30
0.0
 11
3962.128652219983
 21
610.7807589405622
 31
0.0
  0
LINE
  5
479E
330
2
100
AcDbEntity
  8
エンボス
  6
Continuous
100
AcDbLine
 10
3962.128652219983
 20
613.7807589405622
 30
0.0
 11
3965.128652219983
 21
615.7807589405622
 31
0.0
  0
LINE
  5
479F
330
2
100
AcDbEntity
  8
本体
  6
Continuous
100
AcDbLine
 10
3465.128652219982
 20
570.9208662721587
 30
0.0
 11
3965.128652219983
 21
570.9208662721587
 31
0.0
  0
LINE
  5
47A0
330
2
100
AcDbEntity
  8
本体
  6
Continuous
100
AcDbLine
 10
3465.128652219982
 20
576.9208662721587
 30
0.0
 11
3965.128652219983
 21
576.9208662721587
 31
0.0
  0
LINE
  5
47A3
330
2
100
AcDbEntity
  8
本体
  6
Continuous
100
AcDbLine
 10
3465.128652219982
 20
570.9208662721587
 30
0.0
 11
3495.128652219982
 21
576.9208662721587
 31
0.0
  0
LINE
  5
47A4
330
2
100
AcDbEntity
  8
本体
  6
Continuous
100
AcDbLine
 10
3468.128652219982
 20
570.9208662721587
 30
0.0
 11
3468.128652219982
 21
548.4208662721585
 31
0.0
  0
LINE
  5
47A5
330
2
100
AcDbEntity
  8
本体
  6
Continuous
100
AcDbLine
 10
3465.128652219982
 20
570.9208662721587
 30
0.0
 11
3465.128652219982
 21
543.9208662721585
 31
0.0
  0
LINE
  5
47AA
330
2
100
AcDbEntity
  8
エンボス
  6
Continuous
100
AcDbLine
 10
3468.128652219982
 20
558.7807589405622
 30
0.0
 11
3465.128652219982
 21
560.7807589405622
 31
0.0
  0
LINE
  5
47AB
330
2
100
AcDbEntity
  8
エンボス
  6
Continuous
100
AcDbLine
 10
3465.128652219982
 20
563.7807589405622
 30
0.0
 11
3468.128652219982
 21
565.7807589405622
 31
0.0
  0
LINE
  5
47AC
330
2
100
AcDbEntity
  8
本体
  6
Continuous
100
AcDbLine
 10
3465.128652219982
 20
576.9208662721587
 30
0.0
 11
3465.128652219982
 21
570.9208662721587
 31
0.0
  0
LINE
  5
482B
330
2
100
AcDbEntity
  8
本体
  6
Continuous
100
AcDbLine
 10
3945.128652219982
 20
570.9208662721587
 30
0.0
 11
3965.128652219982
 21
574.9208662721587
 31
0.0
  0
LINE
  5
482C
330
2
100
AcDbEntity
  8
本体
  6
Continuous
100
AcDbLine
 10
3948.128652219983
 20
570.9208662721587
 30
0.0
 11
3948.128652219983
 21
548.4208662721585
 31
0.0
  0
LINE
  5
482D
330
2
100
AcDbEntity
  8
本体
  6
Continuous
100
AcDbLine
 10
3945.128652219982
 20
570.9208662721587
 30
0.0
 11
3945.128652219982
 21
548.4208662721585
 31
0.0
  0
LINE
  5
483B
330
2
100
AcDbEntity
  8
エンボス
  6
Continuous
100
AcDbLine
 10
3948.128652219983
 20
558.7807589405622
 30
0.0
 11
3945.128652219982
 21
560.7807589405622
 31
0.0
  0
LINE
  5
483C
330
2
100
AcDbEntity
  8
エンボス
  6
Continuous
100
AcDbLine
 10
3945.128652219982
 20
563.7807589405622
 30
0.0
 11
3948.128652219983
 21
565.7807589405622
 31
0.0
  0
LINE
  5
48CB
330
2
100
AcDbEntity
  8
本体
  6
Continuous
100
AcDbLine
 10
3962.128652219983
 20
570.9208662721587
 30
0.0
 11
3962.128652219983
 21
548.4208662721585
 31
0.0
  0
LINE
  5
48CC
330
2
100
AcDbEntity
  8
本体
  6
Continuous
100
AcDbLine
 10
3965.128652219983
 20
570.9208662721587
 30
0.0
 11
3965.128652219983
 21
548.4208662721585
 31
0.0
  0
LINE
  5
48D1
330
2
100
AcDbEntity
  8
エンボス
  6
Continuous
100
AcDbLine
 10
3965.128652219983
 20
558.7807589405622
 30
0.0
 11
3962.128652219983
 21
560.7807589405622
 31
0.0
  0
LINE
  5
48D2
330
2
100
AcDbEntity
  8
エンボス
  6
Continuous
100
AcDbLine
 10
3962.128652219983
 20
563.7807589405622
 30
0.0
 11
3965.128652219983
 21
565.7807589405622
 31
0.0
  0
LINE
  5
48F9
330
2
100
AcDbEntity
  8
本体
 48
3.0
100
AcDbLine
 10
3468.128652219982
 20
1514.747982474914
 30
0.0
 11
3495.128652219982
 21
1514.747982474914
 31
0.0
  0
LINE
  5
48FA
330
2
100
AcDbEntity
  8
本体
 48
3.0
100
AcDbLine
 10
3468.128652219982
 20
1510.747982474914
 30
0.0
 11
3495.128652219982
 21
1510.747982474914
 31
0.0
  0
LINE
  5
48FB
330
2
100
AcDbEntity
  8
本体
 48
3.0
100
AcDbLine
 10
3468.128652219982
 20
1510.747982474914
 30
0.0
 11
3495.128652219982
 21
1514.747982474914
 31
0.0
  0
LINE
  5
48FC
330
2
100
AcDbEntity
  8
本体
 48
3.0
100
AcDbLine
 10
3498.128652219982
 20
1510.747982474914
 30
0.0
 11
3525.128652219982
 21
1514.747982474914
 31
0.0
  0
LINE
  5
48FE
330
2
100
AcDbEntity
  8
本体
 48
3.0
100
AcDbLine
 10
3498.128652219982
 20
1510.747982474914
 30
0.0
 11
3525.128652219982
 21
1510.747982474914
 31
0.0
  0
LINE
  5
48FF
330
2
100
AcDbEntity
  8
本体
 48
3.0
100
AcDbLine
 10
3498.128652219982
 20
1514.747982474914
 30
0.0
 11
3525.128652219982
 21
1514.747982474914
 31
0.0
  0
LINE
  5
4938
330
2
100
AcDbEntity
  8
本体
 48
3.0
100
AcDbLine
 10
3948.128652219983
 20
1510.747982474914
 30
0.0
 11
3962.128652219983
 21
1514.747982474914
 31
0.0
  0
LINE
  5
493A
330
2
100
AcDbEntity
  8
本体
 48
3.0
100
AcDbLine
 10
3948.128652219983
 20
1510.747982474914
 30
0.0
 11
3962.128652219983
 21
1510.747982474914
 31
0.0
  0
LINE
  5
493B
330
2
100
AcDbEntity
  8
本体
 48
3.0
100
AcDbLine
 10
3948.128652219983
 20
1514.747982474914
 30
0.0
 11
3962.128652219983
 21
1514.747982474914
 31
0.0
  0
INSERT
  5
49E7
330
2
100
AcDbEntity
  8
嵩上断面
 48
3.0
100
AcDbBlockReference
  2
P-H70
 10
5155.421495575607
 20
1495.747982474914
 30
0.0
 50
270.0
  0
INSERT
  5
49E9
330
2
100
AcDbEntity
  8
嵩上断面
 48
3.0
100
AcDbBlockReference
  2
P-H70
 10
4815.421491575605
 20
1495.747982474914
 30
0.0
 41
-1.0
 50
90.0
  0
LINE
  5
4B56
330
2
100
AcDbEntity
  8
本体
 48
3.0
100
AcDbLine
 10
3495.128652219982
 20
1514.747982474914
 30
0.0
 11
3495.128652219982
 21
1495.747982474914
 31
0.0
  0
LINE
  5
4B57
330
2
100
AcDbEntity
  8
本体
 48
3.0
100
AcDbLine
 10
3498.128652219982
 20
1514.747982474914
 30
0.0
 11
3498.128652219982
 21
1495.747982474914
 31
0.0
  0
LINE
  5
4B60
330
2
100
AcDbEntity
  8
本体
 48
3.0
100
AcDbLine
 10
3495.128652219982
 20
1514.747982474914
 30
0.0
 11
3498.128652219982
 21
1514.747982474914
 31
0.0
  0
LINE
  5
4B61
330
2
100
AcDbEntity
  8
本体
 48
3.0
100
AcDbLine
 10
3495.128652219982
 20
1495.747982474914
 30
0.0
 11
3498.128652219982
 21
1495.747982474914
 31
0.0
  0
LINE
  5
4B62
330
2
100
AcDbEntity
  8
本体
 48
3.0
100
AcDbLine
 10
3465.128652219982
 20
1514.747982474914
 30
0.0
 11
3465.128652219982
 21
1495.747982474914
 31
0.0
  0
LINE
  5
4B63
330
2
100
AcDbEntity
  8
本体
 48
3.0
100
AcDbLine
 10
3468.128652219982
 20
1514.747982474914
 30
0.0
 11
3468.128652219982
 21
1495.747982474914
 31
0.0
  0
LINE
  5
4B6C
330
2
100
AcDbEntity
  8
本体
 48
3.0
100
AcDbLine
 10
3465.128652219982
 20
1514.747982474914
 30
0.0
 11
3468.128652219982
 21
1514.747982474914
 31
0.0
  0
LINE
  5
4B6D
330
2
100
AcDbEntity
  8
本体
 48
3.0
100
AcDbLine
 10
3465.128652219982
 20
1495.747982474914
 30
0.0
 11
3468.128652219982
 21
1495.747982474914
 31
0.0
  0
LINE
  5
4B6E
330
2
100
AcDbEntity
  8
本体
 48
3.0
100
AcDbLine
 10
3962.128652219983
 20
1514.747982474914
 30
0.0
 11
3962.128652219983
 21
1495.747982474914
 31
0.0
  0
LINE
  5
4B6F
330
2
100
AcDbEntity
  8
本体
 48
3.0
100
AcDbLine
 10
3965.128652219982
 20
1514.747982474914
 30
0.0
 11
3965.128652219982
 21
1495.747982474914
 31
0.0
  0
LINE
  5
4B78
330
2
100
AcDbEntity
  8
本体
 48
3.0
100
AcDbLine
 10
3962.128652219983
 20
1514.747982474914
 30
0.0
 11
3965.128652219982
 21
1514.747982474914
 31
0.0
  0
LINE
  5
4B79
330
2
100
AcDbEntity
  8
本体
 48
3.0
100
AcDbLine
 10
3962.128652219983
 20
1495.747982474914
 30
0.0
 11
3965.128652219982
 21
1495.747982474914
 31
0.0
  0
LINE
  5
4BB6
330
2
100
AcDbEntity
  8
本体
 48
3.0
100
AcDbLine
 10
3528.128652219982
 20
1514.747982474914
 30
0.0
 11
3528.128652219982
 21
1495.747982474914
 31
0.0
  0
LINE
  5
4BB7
330
2
100
AcDbEntity
  8
本体
 48
3.0
100
AcDbLine
 10
3525.128652219982
 20
1514.747982474914
 30
0.0
 11
3525.128652219982
 21
1495.747982474914
 31
0.0
  0
LINE
  5
4BB8
330
2
100
AcDbEntity
  8
本体
 48
3.0
100
AcDbLine
 10
3528.128652219982
 20
1510.747982474914
 30
0.0
 11
3555.128652219983
 21
1514.747982474914
 31
0.0
  0
LINE
  5
4BB9
330
2
100
AcDbEntity
  8
本体
 48
3.0
100
AcDbLine
 10
3528.128652219982
 20
1510.747982474914
 30
0.0
 11
3555.128652219983
 21
1510.747982474914
 31
0.0
  0
LINE
  5
4BBA
330
2
100
AcDbEntity
  8
本体
 48
3.0
100
AcDbLine
 10
3525.128652219982
 20
1495.747982474914
 30
0.0
 11
3528.128652219982
 21
1495.747982474914
 31
0.0
  0
LINE
  5
4BBB
330
2
100
AcDbEntity
  8
本体
 48
3.0
100
AcDbLine
 10
3528.128652219982
 20
1514.747982474914
 30
0.0
 11
3555.128652219983
 21
1514.747982474914
 31
0.0
  0
LINE
  5
4BBC
330
2
100
AcDbEntity
  8
本体
 48
3.0
100
AcDbLine
 10
3525.128652219982
 20
1514.747982474914
 30
0.0
 11
3528.128652219982
 21
1514.747982474914
 31
0.0
  0
LINE
  5
4BBD
330
2
100
AcDbEntity
  8
本体
 48
3.0
100
AcDbLine
 10
3558.128652219983
 20
1514.747982474914
 30
0.0
 11
3558.128652219983
 21
1495.747982474914
 31
0.0
  0
LINE
  5
4BBE
330
2
100
AcDbEntity
  8
本体
 48
3.0
100
AcDbLine
 10
3555.128652219983
 20
1514.747982474914
 30
0.0
 11
3555.128652219983
 21
1495.747982474914
 31
0.0
  0
LINE
  5
4BBF
330
2
100
AcDbEntity
  8
本体
 48
3.0
100
AcDbLine
 10
3558.128652219983
 20
1510.747982474914
 30
0.0
 11
3585.128652219982
 21
1514.747982474914
 31
0.0
  0
LINE
  5
4BC0
330
2
100
AcDbEntity
  8
本体
 48
3.0
100
AcDbLine
 10
3558.128652219983
 20
1510.747982474914
 30
0.0
 11
3585.128652219982
 21
1510.747982474914
 31
0.0
  0
LINE
  5
4BC1
330
2
100
AcDbEntity
  8
本体
 48
3.0
100
AcDbLine
 10
3555.128652219983
 20
1495.747982474914
 30
0.0
 11
3558.128652219983
 21
1495.747982474914
 31
0.0
  0
LINE
  5
4BC2
330
2
100
AcDbEntity
  8
本体
 48
3.0
100
AcDbLine
 10
3558.128652219983
 20
1514.747982474914
 30
0.0
 11
3585.128652219982
 21
1514.747982474914
 31
0.0
  0
LINE
  5
4BC3
330
2
100
AcDbEntity
  8
本体
 48
3.0
100
AcDbLine
 10
3555.128652219983
 20
1514.747982474914
 30
0.0
 11
3558.128652219983
 21
1514.747982474914
 31
0.0
  0
LINE
  5
4BC4
330
2
100
AcDbEntity
  8
本体
 48
3.0
100
AcDbLine
 10
3588.128652219982
 20
1514.747982474914
 30
0.0
 11
3588.128652219982
 21
1495.747982474914
 31
0.0
  0
LINE
  5
4BC5
330
2
100
AcDbEntity
  8
本体
 48
3.0
100
AcDbLine
 10
3585.128652219982
 20
1514.747982474914
 30
0.0
 11
3585.128652219982
 21
1495.747982474914
 31
0.0
  0
LINE
  5
4BC6
330
2
100
AcDbEntity
  8
本体
 48
3.0
100
AcDbLine
 10
3588.128652219982
 20
1510.747982474914
 30
0.0
 11
3615.128652219982
 21
1514.747982474914
 31
0.0
  0
LINE
  5
4BC7
330
2
100
AcDbEntity
  8
本体
 48
3.0
100
AcDbLine
 10
3588.128652219982
 20
1510.747982474914
 30
0.0
 11
3615.128652219982
 21
1510.747982474914
 31
0.0
  0
LINE
  5
4BC8
330
2
100
AcDbEntity
  8
本体
 48
3.0
100
AcDbLine
 10
3585.128652219982
 20
1495.747982474914
 30
0.0
 11
3588.128652219982
 21
1495.747982474914
 31
0.0
  0
LINE
  5
4BC9
330
2
100
AcDbEntity
  8
本体
 48
3.0
100
AcDbLine
 10
3588.128652219982
 20
1514.747982474914
 30
0.0
 11
3615.128652219982
 21
1514.747982474914
 31
0.0
  0
LINE
  5
4BCA
330
2
100
AcDbEntity
  8
本体
 48
3.0
100
AcDbLine
 10
3585.128652219982
 20
1514.747982474914
 30
0.0
 11
3588.128652219982
 21
1514.747982474914
 31
0.0
  0
LINE
  5
4BCB
330
2
100
AcDbEntity
  8
本体
 48
3.0
100
AcDbLine
 10
3618.128652219982
 20
1514.747982474914
 30
0.0
 11
3618.128652219982
 21
1495.747982474914
 31
0.0
  0
LINE
  5
4BCC
330
2
100
AcDbEntity
  8
本体
 48
3.0
100
AcDbLine
 10
3615.128652219982
 20
1514.747982474914
 30
0.0
 11
3615.128652219982
 21
1495.747982474914
 31
0.0
  0
LINE
  5
4BCD
330
2
100
AcDbEntity
  8
本体
 48
3.0
100
AcDbLine
 10
3618.128652219982
 20
1510.747982474914
 30
0.0
 11
3645.128652219983
 21
1514.747982474914
 31
0.0
  0
LINE
  5
4BCE
330
2
100
AcDbEntity
  8
本体
 48
3.0
100
AcDbLine
 10
3618.128652219982
 20
1510.747982474914
 30
0.0
 11
3645.128652219983
 21
1510.747982474914
 31
0.0
  0
LINE
  5
4BCF
330
2
100
AcDbEntity
  8
本体
 48
3.0
100
AcDbLine
 10
3615.128652219982
 20
1495.747982474914
 30
0.0
 11
3618.128652219982
 21
1495.747982474914
 31
0.0
  0
LINE
  5
4BD0
330
2
100
AcDbEntity
  8
本体
 48
3.0
100
AcDbLine
 10
3618.128652219982
 20
1514.747982474914
 30
0.0
 11
3645.128652219983
 21
1514.747982474914
 31
0.0
  0
LINE
  5
4BD1
330
2
100
AcDbEntity
  8
本体
 48
3.0
100
AcDbLine
 10
3615.128652219982
 20
1514.747982474914
 30
0.0
 11
3618.128652219982
 21
1514.747982474914
 31
0.0
  0
LINE
  5
4BD2
330
2
100
AcDbEntity
  8
本体
 48
3.0
100
AcDbLine
 10
3648.128652219983
 20
1514.747982474914
 30
0.0
 11
3648.128652219983
 21
1495.747982474914
 31
0.0
  0
LINE
  5
4BD3
330
2
100
AcDbEntity
  8
本体
 48
3.0
100
AcDbLine
 10
3645.128652219983
 20
1514.747982474914
 30
0.0
 11
3645.128652219983
 21
1495.747982474914
 31
0.0
  0
LINE
  5
4BD4
330
2
100
AcDbEntity
  8
本体
 48
3.0
100
AcDbLine
 10
3648.128652219983
 20
1510.747982474914
 30
0.0
 11
3675.128652219982
 21
1514.747982474914
 31
0.0
  0
LINE
  5
4BD5
330
2
100
AcDbEntity
  8
本体
 48
3.0
100
AcDbLine
 10
3648.128652219983
 20
1510.747982474914
 30
0.0
 11
3675.128652219982
 21
1510.747982474914
 31
0.0
  0
LINE
  5
4BD6
330
2
100
AcDbEntity
  8
本体
 48
3.0
100
AcDbLine
 10
3645.128652219983
 20
1495.747982474914
 30
0.0
 11
3648.128652219983
 21
1495.747982474914
 31
0.0
  0
LINE
  5
4BD7
330
2
100
AcDbEntity
  8
本体
 48
3.0
100
AcDbLine
 10
3648.128652219983
 20
1514.747982474914
 30
0.0
 11
3675.128652219982
 21
1514.747982474914
 31
0.0
  0
LINE
  5
4BD8
330
2
100
AcDbEntity
  8
本体
 48
3.0
100
AcDbLine
 10
3645.128652219983
 20
1514.747982474914
 30
0.0
 11
3648.128652219983
 21
1514.747982474914
 31
0.0
  0
LINE
  5
4BD9
330
2
100
AcDbEntity
  8
本体
 48
3.0
100
AcDbLine
 10
3678.128652219982
 20
1514.747982474914
 30
0.0
 11
3678.128652219982
 21
1495.747982474914
 31
0.0
  0
LINE
  5
4BDA
330
2
100
AcDbEntity
  8
本体
 48
3.0
100
AcDbLine
 10
3675.128652219982
 20
1514.747982474914
 30
0.0
 11
3675.128652219982
 21
1495.747982474914
 31
0.0
  0
LINE
  5
4BDB
330
2
100
AcDbEntity
  8
本体
 48
3.0
100
AcDbLine
 10
3678.128652219982
 20
1510.747982474914
 30
0.0
 11
3705.128652219983
 21
1514.747982474914
 31
0.0
  0
LINE
  5
4BDC
330
2
100
AcDbEntity
  8
本体
 48
3.0
100
AcDbLine
 10
3678.128652219982
 20
1510.747982474914
 30
0.0
 11
3705.128652219983
 21
1510.747982474914
 31
0.0
  0
LINE
  5
4BDD
330
2
100
AcDbEntity
  8
本体
 48
3.0
100
AcDbLine
 10
3675.128652219982
 20
1495.747982474914
 30
0.0
 11
3678.128652219982
 21
1495.747982474914
 31
0.0
  0
LINE
  5
4BDE
330
2
100
AcDbEntity
  8
本体
 48
3.0
100
AcDbLine
 10
3678.128652219982
 20
1514.747982474914
 30
0.0
 11
3705.128652219983
 21
1514.747982474914
 31
0.0
  0
LINE
  5
4BDF
330
2
100
AcDbEntity
  8
本体
 48
3.0
100
AcDbLine
 10
3675.128652219982
 20
1514.747982474914
 30
0.0
 11
3678.128652219982
 21
1514.747982474914
 31
0.0
  0
LINE
  5
4BE0
330
2
100
AcDbEntity
  8
本体
 48
3.0
100
AcDbLine
 10
3708.128652219983
 20
1514.747982474914
 30
0.0
 11
3708.128652219983
 21
1495.747982474914
 31
0.0
  0
LINE
  5
4BE1
330
2
100
AcDbEntity
  8
本体
 48
3.0
100
AcDbLine
 10
3705.128652219983
 20
1514.747982474914
 30
0.0
 11
3705.128652219983
 21
1495.747982474914
 31
0.0
  0
LINE
  5
4BE2
330
2
100
AcDbEntity
  8
本体
 48
3.0
100
AcDbLine
 10
3708.128652219983
 20
1510.747982474914
 30
0.0
 11
3735.128652219982
 21
1514.747982474914
 31
0.0
  0
LINE
  5
4BE3
330
2
100
AcDbEntity
  8
本体
 48
3.0
100
AcDbLine
 10
3708.128652219983
 20
1510.747982474914
 30
0.0
 11
3735.128652219982
 21
1510.747982474914
 31
0.0
  0
LINE
  5
4BE4
330
2
100
AcDbEntity
  8
本体
 48
3.0
100
AcDbLine
 10
3705.128652219983
 20
1495.747982474914
 30
0.0
 11
3708.128652219983
 21
1495.747982474914
 31
0.0
  0
LINE
  5
4BE5
330
2
100
AcDbEntity
  8
本体
 48
3.0
100
AcDbLine
 10
3708.128652219983
 20
1514.747982474914
 30
0.0
 11
3735.128652219982
 21
1514.747982474914
 31
0.0
  0
LINE
  5
4BE6
330
2
100
AcDbEntity
  8
本体
 48
3.0
100
AcDbLine
 10
3705.128652219983
 20
1514.747982474914
 30
0.0
 11
3708.128652219983
 21
1514.747982474914
 31
0.0
  0
LINE
  5
4BE7
330
2
100
AcDbEntity
  8
本体
 48
3.0
100
AcDbLine
 10
3738.128652219983
 20
1514.747982474914
 30
0.0
 11
3738.128652219983
 21
1495.747982474914
 31
0.0
  0
LINE
  5
4BE8
330
2
100
AcDbEntity
  8
本体
 48
3.0
100
AcDbLine
 10
3735.128652219982
 20
1514.747982474914
 30
0.0
 11
3735.128652219982
 21
1495.747982474914
 31
0.0
  0
LINE
  5
4BE9
330
2
100
AcDbEntity
  8
本体
 48
3.0
100
AcDbLine
 10
3738.128652219983
 20
1510.747982474914
 30
0.0
 11
3765.128652219982
 21
1514.747982474914
 31
0.0
  0
LINE
  5
4BEA
330
2
100
AcDbEntity
  8
本体
 48
3.0
100
AcDbLine
 10
3738.128652219983
 20
1510.747982474914
 30
0.0
 11
3765.128652219982
 21
1510.747982474914
 31
0.0
  0
LINE
  5
4BEB
330
2
100
AcDbEntity
  8
本体
 48
3.0
100
AcDbLine
 10
3735.128652219982
 20
1495.747982474914
 30
0.0
 11
3738.128652219983
 21
1495.747982474914
 31
0.0
  0
LINE
  5
4BEC
330
2
100
AcDbEntity
  8
本体
 48
3.0
100
AcDbLine
 10
3738.128652219983
 20
1514.747982474914
 30
0.0
 11
3765.128652219982
 21
1514.747982474914
 31
0.0
  0
LINE
  5
4BED
330
2
100
AcDbEntity
  8
本体
 48
3.0
100
AcDbLine
 10
3735.128652219982
 20
1514.747982474914
 30
0.0
 11
3738.128652219983
 21
1514.747982474914
 31
0.0
  0
LINE
  5
4BEE
330
2
100
AcDbEntity
  8
本体
 48
3.0
100
AcDbLine
 10
3768.128652219982
 20
1514.747982474914
 30
0.0
 11
3768.128652219982
 21
1495.747982474914
 31
0.0
  0
LINE
  5
4BEF
330
2
100
AcDbEntity
  8
本体
 48
3.0
100
AcDbLine
 10
3765.128652219982
 20
1514.747982474914
 30
0.0
 11
3765.128652219982
 21
1495.747982474914
 31
0.0
  0
LINE
  5
4BF0
330
2
100
AcDbEntity
  8
本体
 48
3.0
100
AcDbLine
 10
3768.128652219982
 20
1510.747982474914
 30
0.0
 11
3795.128652219982
 21
1514.747982474914
 31
0.0
  0
LINE
  5
4BF1
330
2
100
AcDbEntity
  8
本体
 48
3.0
100
AcDbLine
 10
3768.128652219982
 20
1510.747982474914
 30
0.0
 11
3795.128652219982
 21
1510.747982474914
 31
0.0
  0
LINE
  5
4BF2
330
2
100
AcDbEntity
  8
本体
 48
3.0
100
AcDbLine
 10
3765.128652219982
 20
1495.747982474914
 30
0.0
 11
3768.128652219982
 21
1495.747982474914
 31
0.0
  0
LINE
  5
4BF3
330
2
100
AcDbEntity
  8
本体
 48
3.0
100
AcDbLine
 10
3768.128652219982
 20
1514.747982474914
 30
0.0
 11
3795.128652219982
 21
1514.747982474914
 31
0.0
  0
LINE
  5
4BF4
330
2
100
AcDbEntity
  8
本体
 48
3.0
100
AcDbLine
 10
3765.128652219982
 20
1514.747982474914
 30
0.0
 11
3768.128652219982
 21
1514.747982474914
 31
0.0
  0
LINE
  5
4BF5
330
2
100
AcDbEntity
  8
本体
 48
3.0
100
AcDbLine
 10
3798.128652219983
 20
1514.747982474914
 30
0.0
 11
3798.128652219983
 21
1495.747982474914
 31
0.0
  0
LINE
  5
4BF6
330
2
100
AcDbEntity
  8
本体
 48
3.0
100
AcDbLine
 10
3795.128652219982
 20
1514.747982474914
 30
0.0
 11
3795.128652219982
 21
1495.747982474914
 31
0.0
  0
LINE
  5
4BF7
330
2
100
AcDbEntity
  8
本体
 48
3.0
100
AcDbLine
 10
3798.128652219983
 20
1510.747982474914
 30
0.0
 11
3825.128652219982
 21
1514.747982474914
 31
0.0
  0
LINE
  5
4BF8
330
2
100
AcDbEntity
  8
本体
 48
3.0
100
AcDbLine
 10
3798.128652219983
 20
1510.747982474914
 30
0.0
 11
3825.128652219982
 21
1510.747982474914
 31
0.0
  0
LINE
  5
4BF9
330
2
100
AcDbEntity
  8
本体
 48
3.0
100
AcDbLine
 10
3795.128652219982
 20
1495.747982474914
 30
0.0
 11
3798.128652219983
 21
1495.747982474914
 31
0.0
  0
LINE
  5
4BFA
330
2
100
AcDbEntity
  8
本体
 48
3.0
100
AcDbLine
 10
3798.128652219983
 20
1514.747982474914
 30
0.0
 11
3825.128652219982
 21
1514.747982474914
 31
0.0
  0
LINE
  5
4BFB
330
2
100
AcDbEntity
  8
本体
 48
3.0
100
AcDbLine
 10
3795.128652219982
 20
1514.747982474914
 30
0.0
 11
3798.128652219983
 21
1514.747982474914
 31
0.0
  0
LINE
  5
4BFC
330
2
100
AcDbEntity
  8
本体
 48
3.0
100
AcDbLine
 10
3828.128652219982
 20
1514.747982474914
 30
0.0
 11
3828.128652219982
 21
1495.747982474914
 31
0.0
  0
LINE
  5
4BFD
330
2
100
AcDbEntity
  8
本体
 48
3.0
100
AcDbLine
 10
3825.128652219982
 20
1514.747982474914
 30
0.0
 11
3825.128652219982
 21
1495.747982474914
 31
0.0
  0
LINE
  5
4BFE
330
2
100
AcDbEntity
  8
本体
 48
3.0
100
AcDbLine
 10
3828.128652219982
 20
1510.747982474914
 30
0.0
 11
3855.128652219983
 21
1514.747982474914
 31
0.0
  0
LINE
  5
4BFF
330
2
100
AcDbEntity
  8
本体
 48
3.0
100
AcDbLine
 10
3828.128652219982
 20
1510.747982474914
 30
0.0
 11
3855.128652219983
 21
1510.747982474914
 31
0.0
  0
LINE
  5
4C00
330
2
100
AcDbEntity
  8
本体
 48
3.0
100
AcDbLine
 10
3825.128652219982
 20
1495.747982474914
 30
0.0
 11
3828.128652219982
 21
1495.747982474914
 31
0.0
  0
LINE
  5
4C01
330
2
100
AcDbEntity
  8
本体
 48
3.0
100
AcDbLine
 10
3828.128652219982
 20
1514.747982474914
 30
0.0
 11
3855.128652219983
 21
1514.747982474914
 31
0.0
  0
LINE
  5
4C02
330
2
100
AcDbEntity
  8
本体
 48
3.0
100
AcDbLine
 10
3825.128652219982
 20
1514.747982474914
 30
0.0
 11
3828.128652219982
 21
1514.747982474914
 31
0.0
  0
LINE
  5
4C03
330
2
100
AcDbEntity
  8
本体
 48
3.0
100
AcDbLine
 10
3858.128652219983
 20
1514.747982474914
 30
0.0
 11
3858.128652219983
 21
1495.747982474914
 31
0.0
  0
LINE
  5
4C04
330
2
100
AcDbEntity
  8
本体
 48
3.0
100
AcDbLine
 10
3855.128652219983
 20
1514.747982474914
 30
0.0
 11
3855.128652219983
 21
1495.747982474914
 31
0.0
  0
LINE
  5
4C05
330
2
100
AcDbEntity
  8
本体
 48
3.0
100
AcDbLine
 10
3858.128652219983
 20
1510.747982474914
 30
0.0
 11
3885.128652219981
 21
1514.747982474914
 31
0.0
  0
LINE
  5
4C06
330
2
100
AcDbEntity
  8
本体
 48
3.0
100
AcDbLine
 10
3858.128652219983
 20
1510.747982474914
 30
0.0
 11
3885.128652219981
 21
1510.747982474914
 31
0.0
  0
LINE
  5
4C07
330
2
100
AcDbEntity
  8
本体
 48
3.0
100
AcDbLine
 10
3855.128652219983
 20
1495.747982474914
 30
0.0
 11
3858.128652219983
 21
1495.747982474914
 31
0.0
  0
LINE
  5
4C08
330
2
100
AcDbEntity
  8
本体
 48
3.0
100
AcDbLine
 10
3858.128652219983
 20
1514.747982474914
 30
0.0
 11
3885.128652219981
 21
1514.747982474914
 31
0.0
  0
LINE
  5
4C09
330
2
100
AcDbEntity
  8
本体
 48
3.0
100
AcDbLine
 10
3855.128652219983
 20
1514.747982474914
 30
0.0
 11
3858.128652219983
 21
1514.747982474914
 31
0.0
  0
LINE
  5
4C0A
330
2
100
AcDbEntity
  8
本体
 48
3.0
100
AcDbLine
 10
3888.128652219982
 20
1514.747982474914
 30
0.0
 11
3888.128652219982
 21
1495.747982474914
 31
0.0
  0
LINE
  5
4C0B
330
2
100
AcDbEntity
  8
本体
 48
3.0
100
AcDbLine
 10
3885.128652219981
 20
1514.747982474914
 30
0.0
 11
3885.128652219981
 21
1495.747982474914
 31
0.0
  0
LINE
  5
4C0C
330
2
100
AcDbEntity
  8
本体
 48
3.0
100
AcDbLine
 10
3888.128652219982
 20
1510.747982474914
 30
0.0
 11
3915.128652219982
 21
1514.747982474914
 31
0.0
  0
LINE
  5
4C0D
330
2
100
AcDbEntity
  8
本体
 48
3.0
100
AcDbLine
 10
3888.128652219982
 20
1510.747982474914
 30
0.0
 11
3915.128652219982
 21
1510.747982474914
 31
0.0
  0
LINE
  5
4C0E
330
2
100
AcDbEntity
  8
本体
 48
3.0
100
AcDbLine
 10
3885.128652219981
 20
1495.747982474914
 30
0.0
 11
3888.128652219982
 21
1495.747982474914
 31
0.0
  0
LINE
  5
4C0F
330
2
100
AcDbEntity
  8
本体
 48
3.0
100
AcDbLine
 10
3888.128652219982
 20
1514.747982474914
 30
0.0
 11
3915.128652219982
 21
1514.747982474914
 31
0.0
  0
LINE
  5
4C10
330
2
100
AcDbEntity
  8
本体
 48
3.0
100
AcDbLine
 10
3885.128652219981
 20
1514.747982474914
 30
0.0
 11
3888.128652219982
 21
1514.747982474914
 31
0.0
  0
LINE
  5
4C11
330
2
100
AcDbEntity
  8
本体
 48
3.0
100
AcDbLine
 10
3918.128652219982
 20
1514.747982474914
 30
0.0
 11
3918.128652219982
 21
1495.747982474914
 31
0.0
  0
LINE
  5
4C12
330
2
100
AcDbEntity
  8
本体
 48
3.0
100
AcDbLine
 10
3915.128652219982
 20
1514.747982474914
 30
0.0
 11
3915.128652219982
 21
1495.747982474914
 31
0.0
  0
LINE
  5
4C13
330
2
100
AcDbEntity
  8
本体
 48
3.0
100
AcDbLine
 10
3918.128652219982
 20
1510.747982474914
 30
0.0
 11
3945.128652219981
 21
1514.747982474914
 31
0.0
  0
LINE
  5
4C14
330
2
100
AcDbEntity
  8
本体
 48
3.0
100
AcDbLine
 10
3918.128652219982
 20
1510.747982474914
 30
0.0
 11
3945.128652219981
 21
1510.747982474914
 31
0.0
  0
LINE
  5
4C15
330
2
100
AcDbEntity
  8
本体
 48
3.0
100
AcDbLine
 10
3915.128652219982
 20
1495.747982474914
 30
0.0
 11
3918.128652219982
 21
1495.747982474914
 31
0.0
  0
LINE
  5
4C16
330
2
100
AcDbEntity
  8
本体
 48
3.0
100
AcDbLine
 10
3918.128652219982
 20
1514.747982474914
 30
0.0
 11
3945.128652219981
 21
1514.747982474914
 31
0.0
  0
LINE
  5
4C17
330
2
100
AcDbEntity
  8
本体
 48
3.0
100
AcDbLine
 10
3915.128652219982
 20
1514.747982474914
 30
0.0
 11
3918.128652219982
 21
1514.747982474914
 31
0.0
  0
LINE
  5
4C18
330
2
100
AcDbEntity
  8
本体
 48
3.0
100
AcDbLine
 10
3948.128652219983
 20
1514.747982474914
 30
0.0
 11
3948.128652219983
 21
1495.747982474914
 31
0.0
  0
LINE
  5
4C19
330
2
100
AcDbEntity
  8
本体
 48
3.0
100
AcDbLine
 10
3945.128652219981
 20
1514.747982474914
 30
0.0
 11
3945.128652219981
 21
1495.747982474914
 31
0.0
  0
LINE
  5
4C1C
330
2
100
AcDbEntity
  8
本体
 48
3.0
100
AcDbLine
 10
3945.128652219981
 20
1495.747982474914
 30
0.0
 11
3948.128652219983
 21
1495.747982474914
 31
0.0
  0
LINE
  5
4C1E
330
2
100
AcDbEntity
  8
本体
 48
3.0
100
AcDbLine
 10
3945.128652219981
 20
1514.747982474914
 30
0.0
 11
3948.128652219983
 21
1514.747982474914
 31
0.0
  0
LINE
  5
629A
330
2
100
AcDbEntity
  8
外枠
 48
80.0
370
     9
100
AcDbLine
 10
3025.714524047364
 20
-28.85420002418322
 30
0.0
 11
5815.22568507043
 21
-28.85420002418322
 31
0.0
  0
LINE
  5
629B
330
2
100
AcDbEntity
  8
外枠
 48
80.0
370
     9
100
AcDbLine
 10
5815.225685070434
 20
1944.414912471456
 30
0.0
 11
3025.714524047364
 21
1944.414912471456
 31
0.0
  0
LINE
  5
629C
330
2
100
AcDbEntity
  8
外枠
 48
100.0
370
     9
100
AcDbLine
 10
3035.714524047364
 20
-18.85420002418322
 30
0.0
 11
5805.834149070424
 21
-18.85420002418322
 31
0.0
  0
LINE
  5
629D
330
2
100
AcDbEntity
  8
外枠
  6
Continuous
 48
100.0
370
     9
100
AcDbLine
 10
3035.714524047361
 20
126.5450727966199
 30
0.0
 11
5805.834149070424
 21
126.5450727966163
 31
0.0
  0
LINE
  5
629E
330
2
100
AcDbEntity
  8
外枠
  6
Continuous
 48
100.0
370
     9
100
AcDbLine
 10
3035.714524047361
 20
131.2408407966213
 30
0.0
 11
5805.834149070424
 21
131.240840796614
 31
0.0
  0
LINE
  5
629F
330
2
100
AcDbEntity
  8
外枠
 48
100.0
370
     9
100
AcDbLine
 10
3035.714524047364
 20
1935.02337647145
 30
0.0
 11
5805.834149070418
 21
1935.023376471454
 31
0.0
  0
LINE
  5
62A0
330
2
100
AcDbEntity
  8
外枠
 48
80.0
370
     9
100
AcDbLine
 10
3025.714524047364
 20
-28.85420002418322
 30
0.0
 11
3025.714524047364
 21
1944.414912471456
 31
0.0
  0
LINE
  5
62A1
330
2
100
AcDbEntity
  8
外枠
 48
100.0
370
     9
100
AcDbLine
 10
3035.714524047364
 20
1935.02337647145
 30
0.0
 11
3035.714524047364
 21
-18.85420002418322
 31
0.0
  0
LINE
  5
62A2
330
2
100
AcDbEntity
  8
外枠
  6
Continuous
 48
100.0
370
     9
100
AcDbLine
 10
3035.714524047364
 20
53.84543638621837
 30
0.0
 11
4179.244632599368
 21
53.84543638621472
 31
0.0
  0
MTEXT
  5
62A3
330
2
100
AcDbEntity
  8
外枠
  6
Continuous
 48
100.0
370
     9
100
AcDbMText
 10
3556.704892098666
 20
107.2993564000317
 30
0.0
 40
26.0
 41
649.3805544609696
 71
     1
 72
     5
  1
LSハイテンJIS道路側溝用グレーチング
 73
     1
 44
1.0
1001
ACAD
1000
MTEXTBEGIN
1070
    73
1070
     1
1070
    44
1040
1.0
1070
    74
1070
     0
1000
MTEXTEND
  0
MTEXT
  5
62A4
330
2
100
AcDbEntity
  8
外枠
  6
Continuous
 48
100.0
370
     9
100
AcDbMText
 10
3272.572020386006
 20
35.96394762231286
 30
0.0
 40
35.0
 41
532.9183
 71
     1
 72
     5
  1
360\U+00D7500\U+00D719/89
 73
     1
 44
1.0
1001
ACAD
1000
MTEXTBEGIN
1070
    73
1070
     1
1070
    44
1040
1.0
1070
    74
1070
     0
1000
MTEXTEND
  0
MTEXT
  5
62A5
330
2
100
AcDbEntity
  8
外枠
  6
Continuous
 48
100.0
370
     9
100
AcDbMText
 10
3085.115981798967
 20
108.5218680024554
 30
0.0
 40
30.0
 41
143.5187382884949
 71
     1
 72
     5
  1
歩道用
 73
     1
 44
1.0
1001
ACAD
1000
MTEXTBEGIN
1070
    73
1070
     1
1070
    44
1040
1.0
1070
    74
1070
     0
1000
MTEXTEND
  0
MTEXT
  5
62A6
330
2
100
AcDbEntity
  8
外枠
  6
Continuous
 48
100.0
370
     9
100
AcDbMText
 10
3091.626229721645
 20
31.10546630496902
 30
0.0
 40
35.0
 41
105.8906780963694
 71
     1
 72
     5
  1
KFJP
 73
     1
 44
1.0
1001
ACAD
1000
MTEXTBEGIN
1070
    73
1070
     1
1070
    44
1040
1.0
1070
    74
1070
     0
1000
MTEXTEND
  0
LINE
  5
62A7
330
2
100
AcDbEntity
  8
外枠
 48
100.0
370
     9
100
AcDbLine
 10
3070.714524047364
 20
126.5450727966199
 30
0.0
 11
3070.714524047364
 21
-18.85420002418322
 31
0.0
  0
MTEXT
  5
62A8
330
2
100
AcDbEntity
  8
外枠
  6
Continuous
 48
100.0
370
     9
100
AcDbMText
 10
3040.771232538313
 20
46.96618471105831
 30
0.0
 40
20.0
 41
23.52947333656417
 71
     1
 72
     5
  1
品\P番
 73
     1
 44
1.0
1001
ACAD
1000
MTEXTBEGIN
1070
    73
1070
     1
1070
    44
1040
1.0
1070
    74
1070
     0
1000
MTEXTEND
  0
MTEXT
  5
62A9
330
2
100
AcDbEntity
  8
外枠
  6
Continuous
 48
100.0
370
     9
100
AcDbMText
 10
3040.634624647488
 20
120.4775229187289
 30
0.0
 40
20.0
 41
30.07989939987533
 71
     1
 72
     5
  1
荷\P重
 73
     1
 44
1.0
1001
ACAD
1000
MTEXTBEGIN
1070
    73
1070
     1
1070
    44
1040
1.0
1070
    74
1070
     0
1000
MTEXTEND
  0
LINE
  5
62AA
330
2
100
AcDbEntity
  8
外枠
 48
100.0
370
     9
100
AcDbLine
 10
3204.818573603649
 20
126.5450727966199
 30
0.0
 11
3204.818573603649
 21
-18.85420002418322
 31
0.0
  0
MTEXT
  5
62AB
330
2
100
AcDbEntity
  8
外枠
  6
Continuous
 48
100.0
370
     9
100
AcDbMText
 10
3297.46630478426
 20
105.0030910726164
 30
0.0
 40
30.0
 41
271.6208
 71
     1
 72
     5
  1
250用
 73
     1
 44
1.0
1001
ACAD
1000
MTEXTBEGIN
1070
    73
1070
     1
1070
    44
1040
1.0
1070
    74
1070
     0
1000
MTEXTEND
  0
MTEXT
  5
62AC
330
2
100
AcDbEntity
  8
外枠
  6
Continuous
 48
100.0
370
     9
100
AcDbMText
 10
3210.149177621834
 20
120.4532500997557
 30
0.0
 40
20.0
 41
29.6694
 71
     1
 72
     5
  1
溝幅
 73
     1
 44
1.0
1001
ACAD
1000
MTEXTBEGIN
1070
    73
1070
     1
1070
    44
1040
1.0
1070
    74
1070
     0
1000
MTEXTEND
  0
LINE
  5
62AD
330
2
100
AcDbEntity
  8
外枠
 48
100.0
370
     9
100
AcDbLine
 10
3239.818573603649
 20
126.5450727966199
 30
0.0
 11
3239.818573603649
 21
53.84543638621837
 31
0.0
  0
MTEXT
  5
62AE
330
2
100
AcDbEntity
  8
外枠
  6
Continuous
 48
100.0
370
     9
100
AcDbMText
 10
3503.610069162061
 20
120.4532500997557
 30
0.0
 40
20.0
 41
29.6694
 71
     1
 72
     5
  1
品名
 73
     1
 44
1.0
1001
ACAD
1000
MTEXTBEGIN
1070
    73
1070
     1
1070
    44
1040
1.0
1070
    74
1070
     0
1000
MTEXTEND
  0
LINE
  5
62AF
330
2
100
AcDbEntity
  8
外枠
 48
100.0
370
     9
100
AcDbLine
 10
3498.279465143877
 20
126.5450727966199
 30
0.0
 11
3498.279465143877
 21
53.84543638621837
 31
0.0
  0
LINE
  5
62B0
330
2
100
AcDbEntity
  8
外枠
 48
100.0
370
     9
100
AcDbLine
 10
3533.279465143876
 20
126.5450727966199
 30
0.0
 11
3533.279465143876
 21
53.84543638621837
 31
0.0
  0
MTEXT
  5
62B1
330
2
100
AcDbEntity
  8
外枠
  6
Continuous
 48
100.0
370
     9
100
AcDbMText
 10
3754.192411701318
 20
48.07131171098081
 30
0.0
 40
20.0
 41
664.6118999999998
 71
     1
 72
     5
  1
摘\P要
 73
     1
 44
1.0
1001
ACAD
1000
MTEXTBEGIN
1070
    73
1070
     1
1070
    44
1040
1.0
1070
    74
1070
     0
1000
MTEXTEND
  0
LINE
  5
62B2
330
2
100
AcDbEntity
  8
外枠
 48
100.0
370
     9
100
AcDbLine
 10
3749.542761358951
 20
53.84543638621109
 30
0.0
 11
3749.542761358951
 21
-18.85420002419049
 31
0.0
  0
LINE
  5
62B3
330
2
100
AcDbEntity
  8
外枠
 48
100.0
370
     9
100
AcDbLine
 10
3784.542761358951
 20
53.84543638621109
 30
0.0
 11
3784.542761358951
 21
-18.85420002419049
 31
0.0
  0
LINE
  5
62B4
330
2
100
AcDbEntity
  8
外枠
 48
100.0
370
     9
100
AcDbLine
 10
4000.665831017459
 20
53.84543638621109
 30
0.0
 11
4000.665831017459
 21
-18.85420002419049
 31
0.0
  0
MTEXT
  5
62B5
330
2
100
AcDbEntity
  8
外枠
  6
Continuous
 48
100.0
370
     9
100
AcDbMText
 10
4005.447483943339
 20
45.99405459402261
 30
0.0
 40
20.0
 41
31.38947761565365
 71
     1
 72
     5
  1
材\P質
 73
     1
 44
1.0
1001
ACAD
1000
MTEXTBEGIN
1070
    73
1070
     1
1070
    44
1040
1.0
1070
    74
1070
     0
1000
MTEXTEND
  0
LINE
  5
62B6
330
2
100
AcDbEntity
  8
外枠
 48
100.0
370
     9
100
AcDbLine
 10
4035.665831017459
 20
53.84543638621109
 30
0.0
 11
4035.665831017459
 21
-18.85420002419049
 31
0.0
  0
LINE
  5
62B7
330
2
100
AcDbEntity
  8
外枠
 48
80.0
370
     9
100
AcDbLine
 10
5815.22568507043
 20
-28.85420002418322
 30
0.0
 11
5815.225685070434
 21
1944.414912471456
 31
0.0
  0
LINE
  5
62B8
330
2
100
AcDbEntity
  8
外枠
 48
100.0
370
     9
100
AcDbLine
 10
5805.834149070418
 20
1935.023376471454
 30
0.0
 11
5805.834149070424
 21
-18.85420002418322
 31
0.0
  0
LINE
  5
62B9
330
2
100
AcDbEntity
  8
外枠
 48
3.0
100
AcDbLine
 10
4632.78677895991
 20
32.81648717533747
 30
0.0
 11
5287.888124981996
 21
32.81648717533747
 31
0.0
  0
MTEXT
  5
62BA
330
2
100
AcDbEntity
  8
外枠
  6
Continuous
 48
100.0
370
     9
100
AcDbMText
 10
4709.336697915682
 20
21.86084761676967
 30
0.0
 40
30.00024
 41
539.4827578564582
 71
     1
 72
     5
  1
T A K A R A   G R A T I N G
 73
     1
 44
1.0
1001
ACAD
1000
MTEXTBEGIN
1070
    73
1070
     1
1070
    44
1040
1.0
1070
    74
1070
     0
1000
MTEXTEND
  0
MTEXT
  5
62BB
330
2
100
AcDbEntity
  8
外枠
  6
Continuous
 48
100.0
370
     9
100
AcDbMText
 10
4753.735138684056
 20
98.31309382350063
 30
0.0
 40
30.0
 41
282.8297
 71
     1
 72
     5
  1
株 式 会 社
 73
     1
 44
1.0
1001
ACAD
1000
MTEXTBEGIN
1070
    73
1070
     1
1070
    44
1040
1.0
1070
    74
1070
     0
1000
MTEXTEND
  0
LINE
  5
62BC
330
2
100
AcDbEntity
  8
外枠
  6
Continuous
 48
100.0
370
     9
100
AcDbLine
 10
4534.394661925346
 20
126.5450727966236
 30
0.0
 11
4534.394661925346
 21
-18.85420002417957
 31
0.0
  0
LINE
  5
62BD
330
2
100
AcDbEntity
  8
外枠
  6
Continuous
 48
100.0
370
     9
100
AcDbLine
 10
4619.665942586522
 20
126.5450727966163
 30
0.0
 11
4619.665942586522
 21
-18.85420002418685
 31
0.0
  0
LINE
  5
62BE
330
2
100
AcDbEntity
  8
外枠
  6
Continuous
 48
100.0
370
     9
100
AcDbLine
 10
4642.492337384863
 20
77.77986304487878
 30
0.0
 11
4638.178524021869
 21
81.23091373526678
 31
0.0
  0
LINE
  5
62BF
330
2
100
AcDbEntity
  8
外枠
  6
Continuous
 48
100.0
370
     9
100
AcDbLine
 10
4642.492337384863
 20
77.77986304487878
 30
0.0
 11
4638.178524021869
 21
74.32881235447985
 31
0.0
  0
LINE
  5
62C0
330
2
100
AcDbEntity
  8
外枠
  6
Continuous
 48
100.0
370
     9
100
AcDbLine
 10
4642.492337384868
 20
84.6819644256657
 30
0.0
 11
4638.178524021869
 21
81.23091373526678
 31
0.0
  0
LINE
  5
62C1
330
2
100
AcDbEntity
  8
外枠
  6
Continuous
 48
100.0
370
     9
100
AcDbLine
 10
4642.492337384863
 20
70.87776166409186
 30
0.0
 11
4638.178524021869
 21
74.32881235447985
 31
0.0
  0
MTEXT
  5
62C2
330
2
100
AcDbEntity
  8
外枠
  6
Continuous
 48
100.0
370
     9
100
AcDbMText
 10
4546.191460450109
 20
108.6453509733947
 30
0.0
 40
20.0
 41
1015.1375
 71
     1
 72
     5
  1
7.9
 73
     1
 44
1.0
1001
ACAD
1000
MTEXTBEGIN
1070
    73
1070
     1
1070
    44
1040
1.0
1070
    74
1070
     0
1000
MTEXTEND
  0
MTEXT
  5
62C3
330
2
100
AcDbEntity
  8
外枠
  6
Continuous
 48
100.0
370
     9
100
AcDbMText
 10
4594.179222233353
 20
79.55949929380953
 30
0.0
 40
18.0
 41
25.456
 71
     1
 72
     5
  1
kg
 73
     1
 44
1.0
1001
ACAD
1000
MTEXTBEGIN
1070
    73
1070
     1
1070
    44
1040
1.0
1070
    74
1070
     0
1000
MTEXTEND
  0
LINE
  5
62C4
330
2
100
AcDbEntity
  8
外枠
  6
Continuous
 48
100.0
370
     9
100
AcDbLine
 10
4674.837167554406
 20
110.557828561291
 30
0.0
 11
4679.150980917395
 21
107.106777870903
 31
0.0
  0
LINE
  5
62C5
330
2
100
AcDbEntity
  8
外枠
  6
Continuous
 48
100.0
370
     9
100
AcDbLine
 10
4692.092421006373
 20
110.557828561291
 30
0.0
 11
4687.778607643384
 21
107.106777870903
 31
0.0
  0
MTEXT
  5
62C6
330
2
100
AcDbEntity
  8
外枠
  6
Continuous
 48
100.0
370
     9
100
AcDbMText
 10
4668.555079181553
 20
91.96429136059238
 30
0.0
 40
23.95393639053264
 41
23.85059431815661
 71
     1
 72
     5
  1
{\fＭＳ ゴシック|b0|i0|c128|p49;宝}
 73
     1
 44
1.0
1001
ACAD
1000
MTEXTBEGIN
1070
    73
1070
     1
1070
    44
1040
1.0
1070
    74
1070
     0
1000
MTEXTEND
  0
LINE
  5
62C7
330
2
100
AcDbEntity
  8
外枠
  6
Continuous
 48
100.0
370
     9
100
AcDbLine
 10
4687.778607643384
 20
107.106777870903
 30
0.0
 11
4720.123437812921
 21
81.23091373526678
 31
0.0
  0
LINE
  5
62C8
330
2
100
AcDbEntity
  8
外枠
  6
Continuous
 48
100.0
370
     9
100
AcDbLine
 10
4683.464794280388
 20
103.6557271805095
 30
0.0
 11
4715.809624449927
 21
77.77986304487878
 31
0.0
  0
LINE
  5
62C9
330
2
100
AcDbEntity
  8
外枠
  6
Continuous
 48
100.0
370
     9
100
AcDbLine
 10
4715.809624449927
 20
77.77986304487878
 30
0.0
 11
4683.464794280388
 21
51.90399890924801
 31
0.0
  0
LINE
  5
62CA
330
2
100
AcDbEntity
  8
外枠
  6
Continuous
 48
100.0
370
     9
100
AcDbLine
 10
4720.123437812921
 20
74.32881235447985
 30
0.0
 11
4687.778607643384
 21
48.45294821885456
 31
0.0
  0
LINE
  5
62CB
330
2
100
AcDbEntity
  8
外枠
  6
Continuous
 48
100.0
370
     9
100
AcDbLine
 10
4683.464794280388
 20
51.90399890924256
 30
0.0
 11
4651.119964110852
 21
77.77986304487878
 31
0.0
  0
LINE
  5
62CC
330
2
100
AcDbEntity
  8
外枠
  6
Continuous
 48
100.0
370
     9
100
AcDbLine
 10
4679.150980917395
 20
48.45294821885456
 30
0.0
 11
4646.806150747862
 21
74.32881235447985
 31
0.0
  0
LINE
  5
62CD
330
2
100
AcDbEntity
  8
外枠
  6
Continuous
 48
100.0
370
     9
100
AcDbLine
 10
4646.806150747862
 20
74.32881235447985
 30
0.0
 11
4642.492337384868
 21
70.87776166409186
 31
0.0
  0
LINE
  5
62CE
330
2
100
AcDbEntity
  8
外枠
  6
Continuous
 48
100.0
370
     9
100
AcDbLine
 10
4679.150980917395
 20
48.45294821885456
 30
0.0
 11
4674.837167554406
 21
45.00189752845563
 31
0.0
  0
LINE
  5
62CF
330
2
100
AcDbEntity
  8
外枠
  6
Continuous
 48
100.0
370
     9
100
AcDbLine
 10
4679.150980917395
 20
41.55084683806218
 30
0.0
 11
4674.837167554406
 21
45.00189752845563
 31
0.0
  0
LINE
  5
62D0
330
2
100
AcDbEntity
  8
外枠
  6
Continuous
 48
100.0
370
     9
100
AcDbLine
 10
4683.464794280388
 20
45.00189752845563
 30
0.0
 11
4679.150980917395
 21
41.55084683806218
 31
0.0
  0
LINE
  5
62D1
330
2
100
AcDbEntity
  8
外枠
  6
Continuous
 48
100.0
370
     9
100
AcDbLine
 10
4692.092421006373
 20
45.00189752845563
 30
0.0
 11
4687.778607643384
 21
41.55084683806218
 31
0.0
  0
LINE
  5
62D2
330
2
100
AcDbEntity
  8
外枠
  6
Continuous
 48
100.0
370
     9
100
AcDbLine
 10
4687.778607643384
 20
41.55084683806218
 30
0.0
 11
4683.464794280388
 21
45.00189752845563
 31
0.0
  0
LINE
  5
62D3
330
2
100
AcDbEntity
  8
外枠
  6
Continuous
 48
100.0
370
     9
100
AcDbLine
 10
4692.092421006373
 20
45.00189752845563
 30
0.0
 11
4687.778607643384
 21
48.45294821885456
 31
0.0
  0
LINE
  5
62D4
330
2
100
AcDbEntity
  8
外枠
  6
Continuous
 48
100.0
370
     9
100
AcDbLine
 10
4683.464794280388
 20
103.6557271805095
 30
0.0
 11
4651.119964110846
 21
77.77986304487878
 31
0.0
  0
LINE
  5
62D5
330
2
100
AcDbEntity
  8
外枠
  6
Continuous
 48
100.0
370
     9
100
AcDbLine
 10
4679.150980917395
 20
107.106777870903
 30
0.0
 11
4646.806150747862
 21
81.23091373526678
 31
0.0
  0
LINE
  5
62D6
330
2
100
AcDbEntity
  8
外枠
  6
Continuous
 48
100.0
370
     9
100
AcDbLine
 10
4646.806150747862
 20
81.23091373526678
 30
0.0
 11
4642.492337384868
 21
84.6819644256657
 31
0.0
  0
LINE
  5
62D7
330
2
100
AcDbEntity
  8
外枠
  6
Continuous
 48
100.0
370
     9
100
AcDbLine
 10
4720.123437812921
 20
74.32881235447985
 30
0.0
 11
4724.437251175904
 21
70.87776166409186
 31
0.0
  0
LINE
  5
62D8
330
2
100
AcDbEntity
  8
外枠
  6
Continuous
 48
100.0
370
     9
100
AcDbLine
 10
4728.751064538903
 20
74.32881235447985
 30
0.0
 11
4724.437251175904
 21
70.87776166409186
 31
0.0
  0
LINE
  5
62D9
330
2
100
AcDbEntity
  8
外枠
  6
Continuous
 48
100.0
370
     9
100
AcDbLine
 10
4724.437251175904
 20
84.6819644256657
 30
0.0
 11
4720.123437812921
 21
81.23091373526678
 31
0.0
  0
LINE
  5
62DA
330
2
100
AcDbEntity
  8
外枠
  6
Continuous
 48
100.0
370
     9
100
AcDbLine
 10
4724.437251175904
 20
77.77986304487878
 30
0.0
 11
4728.751064538903
 21
74.32881235447985
 31
0.0
  0
LINE
  5
62DB
330
2
100
AcDbEntity
  8
外枠
  6
Continuous
 48
100.0
370
     9
100
AcDbLine
 10
4724.437251175904
 20
84.6819644256657
 30
0.0
 11
4728.751064538903
 21
81.23091373526678
 31
0.0
  0
LINE
  5
62DC
330
2
100
AcDbEntity
  8
外枠
  6
Continuous
 48
100.0
370
     9
100
AcDbLine
 10
4728.751064538903
 20
81.23091373526678
 30
0.0
 11
4724.437251175904
 21
77.77986304487878
 31
0.0
  0
LINE
  5
62DD
330
2
100
AcDbEntity
  8
外枠
  6
Continuous
 48
100.0
370
     9
100
AcDbLine
 10
4679.150980917395
 20
114.0088792516844
 30
0.0
 11
4674.837167554406
 21
110.557828561291
 31
0.0
  0
LINE
  5
62DE
330
2
100
AcDbEntity
  8
外枠
  6
Continuous
 48
100.0
370
     9
100
AcDbLine
 10
4687.778607643384
 20
114.0088792516844
 30
0.0
 11
4692.092421006373
 21
110.557828561291
 31
0.0
  0
LINE
  5
62DF
330
2
100
AcDbEntity
  8
外枠
  6
Continuous
 48
100.0
370
     9
100
AcDbLine
 10
4679.150980917395
 20
114.0088792516844
 30
0.0
 11
4683.464794280388
 21
110.557828561291
 31
0.0
  0
LINE
  5
62E0
330
2
100
AcDbEntity
  8
外枠
  6
Continuous
 48
100.0
370
     9
100
AcDbLine
 10
4687.778607643384
 20
114.0088792516844
 30
0.0
 11
4683.464794280388
 21
110.557828561291
 31
0.0
  0
MTEXT
  5
62E1
330
2
100
AcDbEntity
  8
外枠
  6
Continuous
 48
100.0
370
     9
100
AcDbMText
 10
5007.961136807168
 20
112.6770822123531
 30
0.0
 40
50.0
 41
269.1378
 71
     1
 72
     5
  1
宝 機 材
 73
     1
 44
1.0
1001
ACAD
1000
MTEXTBEGIN
1070
    73
1070
     1
1070
    44
1040
1.0
1070
    74
1070
     0
1000
MTEXTEND
  0
LINE
  5
62E2
330
2
100
AcDbEntity
  8
外枠
  6
Continuous
 48
100.0
370
     9
100
AcDbLine
 10
5720.490004715507
 20
49.74306489695301
 30
0.0
 11
5755.354303370137
 21
14.87876624232377
 31
0.0
  0
LINE
  5
62E3
330
2
100
AcDbEntity
  8
外枠
  6
Continuous
 48
100.0
370
     9
100
AcDbLine
 10
5755.354303370137
 20
84.60736355158589
 30
0.0
 11
5720.490004715507
 21
49.74306489695301
 31
0.0
  0
LINE
  5
62E4
330
2
100
AcDbEntity
  8
外枠
  6
Continuous
 48
100.0
370
     9
100
AcDbLine
 10
5297.445289465175
 20
126.5450727966163
 30
0.0
 11
5297.445289465175
 21
-18.85420002418322
 31
0.0
  0
LINE
  5
62E5
330
2
100
AcDbEntity
  8
外枠
  6
Continuous
 48
100.0
370
     9
100
AcDbLine
 10
5413.100116094678
 20
126.5450727966163
 30
0.0
 11
5413.100116094678
 21
-18.85420002418685
 31
0.0
  0
MTEXT
  5
62E6
330
2
100
AcDbEntity
  8
外枠
  6
Continuous
 48
100.0
370
     9
100
AcDbMText
 10
5544.612494082016
 20
51.67031507963476
 30
0.0
 40
16.435188
 41
274.138099993296
 71
     1
 72
     5
  1
縮尺（A4用紙)
 73
     1
 44
1.0
1001
ACAD
1000
MTEXTBEGIN
1070
    73
1070
     1
1070
    44
1040
1.0
1070
    74
1070
     0
1000
MTEXTEND
  0
LINE
  5
62E7
330
2
100
AcDbEntity
  8
外枠
  6
Continuous
 48
100.0
370
     9
100
AcDbLine
 10
5528.754942724174
 20
126.5450727966163
 30
0.0
 11
5528.754942724174
 21
-18.85420002418685
 31
0.0
  0
LINE
  5
62E8
330
2
100
AcDbEntity
  8
外枠
  6
Continuous
 48
100.0
370
     9
100
AcDbLine
 10
5702.376883075956
 20
126.5450727966163
 30
0.0
 11
5702.376883075956
 21
-18.85420002418322
 31
0.0
  0
MTEXT
  5
62E9
330
2
100
AcDbEntity
  8
外枠
  6
Continuous
 48
100.0
370
     9
100
AcDbMText
 10
5583.301854337758
 20
13.3874190276547
 30
0.0
 40
23.47884
 41
274.138099993296
 71
     1
 72
     5
  1
1：10
 73
     1
 44
1.0
1001
ACAD
1000
MTEXTBEGIN
1070
    73
1070
     1
1070
    44
1040
1.0
1070
    74
1070
     0
1000
MTEXTEND
  0
MTEXT
  5
62EA
330
2
100
AcDbEntity
  8
外枠
  6
Continuous
 48
100.0
370
     9
100
AcDbMText
 10
5306.004928433786
 20
120.6587012187956
 30
0.0
 40
18.783072
 41
274.13809060176
 71
     1
 72
     5
  1
Check
 73
     1
 44
1.0
1001
ACAD
1000
MTEXTBEGIN
1070
    73
1070
     1
1070
    44
1040
1.0
1070
    74
1070
     0
1000
MTEXTEND
  0
MTEXT
  5
62EB
330
2
100
AcDbEntity
  8
外枠
  6
Continuous
 48
100.0
370
     9
100
AcDbMText
 10
5423.749125698903
 20
120.6587012187956
 30
0.0
 40
18.783072
 41
274.13809060176
 71
     1
 72
     5
  1
Draw
 73
     1
 44
1.0
1001
ACAD
1000
MTEXTBEGIN
1070
    73
1070
     1
1070
    44
1040
1.0
1070
    74
1070
     0
1000
MTEXTEND
  0
LINE
  5
62EC
330
2
100
AcDbEntity
  8
外枠
  6
Continuous
 48
100.0
370
     9
100
AcDbLine
 10
5702.376883075956
 20
56.19332038621362
 30
0.0
 11
5528.754942724174
 21
56.19332038621362
 31
0.0
  0
MTEXT
  5
62ED
330
2
100
AcDbEntity
  8
外枠
  6
Continuous
 48
100.0
370
     9
100
AcDbMText
 10
5544.612494082016
 20
124.8762165962143
 30
0.0
 40
16.435188
 41
274.138099993296
 71
     1
 72
     5
  1
図面作成日
 73
     1
 44
1.0
1001
ACAD
1000
MTEXTBEGIN
1070
    73
1070
     1
1070
    44
1040
1.0
1070
    74
1070
     0
1000
MTEXTEND
  0
LINE
  5
62EE
330
2
100
AcDbEntity
  8
外枠
  6
Continuous
 48
100.0
370
     9
100
AcDbLine
 10
5755.354303370137
 20
14.87876624232377
 30
0.0
 11
5790.218602024759
 21
49.74306489695301
 31
0.0
  0
LINE
  5
62EF
330
2
100
AcDbEntity
  8
外枠
  6
Continuous
 48
100.0
370
     9
100
AcDbLine
 10
5790.218602024759
 20
49.74306489695301
 30
0.0
 11
5755.354303370137
 21
84.60736355158589
 31
0.0
  0
MTEXT
  5
62F0
330
2
100
AcDbEntity
  8
外枠
  6
Continuous
 48
100.0
370
     9
100
AcDbMText
 10
4047.907710301606
 20
48.75597984152093
 30
0.0
 40
18.0
 41
122.0406
 71
     1
 72
     5
  1
【主部材】
 73
     1
 44
1.0
1001
ACAD
1000
MTEXTBEGIN
1070
    73
1070
     1
1070
    44
1040
1.0
1070
    74
1070
     0
1000
MTEXTEND
  0
MTEXT
  5
62F1
330
2
100
AcDbEntity
  8
外枠
  6
Continuous
 48
100.0
370
     9
100
AcDbMText
 10
4228.392481108701
 20
91.28356420819866
 30
0.0
 40
25.0
 41
1015.1375
 71
     1
 72
     5
  1
溶融亜鉛めっき仕上
 73
     1
 44
1.0
1001
ACAD
1000
MTEXTBEGIN
1070
    73
1070
     1
1070
    44
1040
1.0
1070
    74
1070
     0
1000
MTEXTEND
  0
MTEXT
  5
62F2
330
2
100
AcDbEntity
  8
外枠
  6
Continuous
 48
100.0
370
     9
100
AcDbMText
 10
4225.476262814991
 20
122.2277879108822
 30
0.0
 40
18.0
 41
301.8661
 71
     1
 72
     5
  1
【グレーチング】JIS　H8641
 73
     1
 44
1.0
1001
ACAD
1000
MTEXTBEGIN
1070
    73
1070
     1
1070
    44
1040
1.0
1070
    74
1070
     0
1000
MTEXTEND
  0
MTEXT
  5
62F3
330
2
100
AcDbEntity
  8
外枠
  6
Continuous
 48
100.0
370
     9
100
AcDbMText
 10
4185.099922970763
 20
119.7569115586671
 30
0.0
 40
20.0
 41
1015.1375
 71
     1
 72
     5
  1
表\P面\P処\P理
 73
     1
 44
1.0
1001
ACAD
1000
MTEXTBEGIN
1070
    73
1070
     1
1070
    44
1040
1.0
1070
    74
1070
     0
1000
MTEXTEND
  0
LINE
  5
62F4
330
2
100
AcDbEntity
  8
外枠
  6
Continuous
 48
100.0
370
     9
100
AcDbLine
 10
4214.246315214015
 20
126.5450727966167
 30
0.0
 11
4214.246315214015
 21
-18.8542000241864
 31
0.0
  0
LINE
  5
62F5
330
2
100
AcDbEntity
  8
外枠
  6
Continuous
 48
100.0
370
     9
100
AcDbLine
 10
4179.245831017459
 20
126.5450727966167
 30
0.0
 11
4179.245831017459
 21
-18.8542000241864
 31
0.0
  0
LINE
  5
62F6
330
2
100
AcDbEntity
  8
外枠
 48
3.0
100
AcDbLine
 10
4214.246315214015
 20
53.84543638621519
 30
0.0
 11
4619.665860343437
 21
53.84543638621519
 31
0.0
  0
MTEXT
  5
62F7
330
2
100
AcDbEntity
  8
外枠
  6
Continuous
 48
100.0
370
     9
100
AcDbMText
 10
4064.689867981495
 20
14.92749993111148
 30
0.0
 40
25.0
 41
122.0406
 71
     1
 72
     5
  1
SS540
 73
     1
 44
1.0
1001
ACAD
1000
MTEXTBEGIN
1070
    73
1070
     1
1070
    44
1040
1.0
1070
    74
1070
     0
1000
MTEXTEND
  0
INSERT
  5
62F8
330
2
100
AcDbEntity
  8
寸法線
 48
3.0
100
AcDbBlockReference
  2
清水
 10
5413.100116094678
 20
126.5450727966163
 30
0.0
  0
INSERT
  5
62F9
330
2
100
AcDbEntity
  8
寸法線
 48
3.0
100
AcDbBlockReference
  2
HGFB詳細(ﾊｲﾃﾝ)
 10
5785.834149070423
 20
151.2408407966141
 30
0.0
  0
MTEXT
  5
62FA
330
2
100
AcDbEntity
  8
外枠
  6
Continuous
 48
100.0
370
     9
100
AcDbMText
 10
5535.700069425977
 20
92.36641054447366
 30
0.0
 40
23.47884
 41
274.1381
 71
     1
 72
     5
  1
'14・09・01
 73
     1
 44
1.0
1001
ACAD
1000
MTEXTBEGIN
1070
    73
1070
     1
1070
    44
1040
1.0
1070
    74
1070
     0
1000
MTEXTEND
  0
INSERT
  5
62FB
330
2
100
AcDbEntity
  8
外枠
 48
3.0
100
AcDbBlockReference
  2
鎌下
 10
5297.445289465175
 20
126.5450727966163
 30
0.0
  0
LINE
  5
62FD
330
2
100
AcDbEntity
  8
本体
 48
3.0
100
AcDbLine
 10
4640.4214935756
 20
564.7419648508474
 30
0.0
 11
5330.421493575607
 21
564.7419648508619
 31
0.0
  0
LINE
  5
62FE
330
2
100
AcDbEntity
  8
本体
 48
3.0
100
AcDbLine
 10
4640.4214935756
 20
624.7419648508472
 30
0.0
 11
5330.421493575607
 21
624.7419648508621
 31
0.0
  0
LINE
  5
62FF
330
2
100
AcDbEntity
  8
本体
 48
3.0
100
AcDbLine
 10
4640.4214935756
 20
624.7419648508472
 30
0.0
 11
4640.4214935756
 21
564.7419648508474
 31
0.0
  0
LINE
  5
6300
330
2
100
AcDbEntity
  8
本体
 48
3.0
100
AcDbLine
 10
5085.421493575605
 20
624.7419648508472
 30
0.0
 11
5085.421493575605
 21
564.7419648508474
 31
0.0
  0
MTEXT
  5
6301
330
2
100
AcDbEntity
  8
外枠
  6
Continuous
 48
100.0
370
     9
100
AcDbMText
 10
4952.446683475035
 20
606.4068800265339
 30
0.0
 40
25.0
 41
100.7596122118877
 71
     1
 72
     5
  1
SS540
 73
     1
 44
1.0
1001
ACAD
1000
MTEXTBEGIN
1070
    73
1070
     1
1070
    44
1040
1.0
1070
    74
1070
     0
1000
MTEXTEND
  0
LINE
  5
6302
330
2
100
AcDbEntity
  8
本体
 48
3.0
100
AcDbLine
 10
4800.421493575647
 20
624.7419648508621
 30
0.0
 11
4800.421493575647
 21
564.7419648508474
 31
0.0
  0
MTEXT
  5
6303
330
2
100
AcDbEntity
  8
外枠
  6
Continuous
 48
100.0
370
     9
100
AcDbMText
 10
4672.258387927651
 20
608.881668066995
 30
0.0
 40
25.0
 41
109.2913512849802
 71
     1
 72
     5
  1
主部材
 73
     1
 44
1.0
1001
ACAD
1000
MTEXTBEGIN
1070
    73
1070
     1
1070
    44
1040
1.0
1070
    74
1070
     0
1000
MTEXTEND
  0
MTEXT
  5
6304
330
2
100
AcDbEntity
  8
外枠
  6
Continuous
 48
100.0
370
     9
100
AcDbMText
 10
4812.476992707718
 20
608.881668066995
 30
0.0
 40
25.0
 41
207.8885004816141
 71
     1
 72
     5
  1
ﾊｲﾃﾝ鋼
 73
     1
 44
1.0
1001
ACAD
1000
MTEXTBEGIN
1070
    73
1070
     1
1070
    44
1040
1.0
1070
    74
1070
     0
1000
MTEXTEND
  0
MTEXT
  5
6305
330
2
100
AcDbEntity
  8
外枠
  6
Continuous
 48
100.0
370
     9
100
AcDbMText
 10
4937.806550067342
 20
668.8816680670097
 30
0.0
 40
25.0
 41
1015.1375
 71
     1
 72
     5
  1
材料表
 73
     1
 44
1.0
1001
ACAD
1000
MTEXTBEGIN
1070
    73
1070
     1
1070
    44
1040
1.0
1070
    74
1070
     0
1000
MTEXTEND
  0
LINE
  5
6306
330
2
100
AcDbEntity
  8
本体
 48
3.0
100
AcDbLine
 10
4925.421493575605
 20
624.7419648508621
 30
0.0
 11
4925.421493575605
 21
564.7419648508474
 31
0.0
  0
LINE
  5
6307
330
2
100
AcDbEntity
  8
本体
 48
3.0
100
AcDbLine
 10
5330.421493575607
 20
624.7419648508472
 30
0.0
 11
5330.421493575607
 21
564.7419648508474
 31
0.0
  0
MTEXT
  5
6308
330
2
100
AcDbEntity
  8
外枠
  6
Continuous
 48
100.0
370
     9
100
AcDbMText
 10
5097.300221732337
 20
606.4068800265292
 30
0.0
 40
25.0
 41
237.5565498464996
 71
     1
 72
     5
  1
HGFB2.5\U+00D719
 73
     1
 44
1.0
1001
ACAD
1000
MTEXTBEGIN
1070
    73
1070
     1
1070
    44
1040
1.0
1070
    74
1070
     0
1000
MTEXTEND
  0
MTEXT
  5
6309
330
2
100
AcDbEntity
  8
外枠
  6
Continuous
 48
100.0
370
     9
100
AcDbMText
 10
4887.522551410232
 20
775.7291304150811
 30
0.0
 40
30.0
 41
299.6031884460488
 71
     1
 72
     5
  1
\A1;KFJP19-25B
 73
     1
 44
1.0
1001
ACAD
1000
MTEXTBEGIN
1070
    73
1070
     1
1070
    44
1040
1.0
1070
    74
1070
     0
1000
MTEXTEND
  0
LINE
  5
630A
330
2
100
AcDbEntity
  8
外枠
 48
3.0
100
AcDbLine
 10
4734.601766042493
 20
739.1926604908324
 30
0.0
 11
5236.24122110872
 21
739.1926604908324
 31
0.0
  0
MTEXT
  5
630B
330
2
100
AcDbEntity
  8
外枠
  6
Continuous
 48
100.0
370
     9
100
AcDbMText
 10
4741.789225586962
 20
826.3622624504597
 30
0.0
 40
26.0
 41
499.4381424217888
 71
     1
 72
     5
  1
ハイテン鋼製グレーチング 歩道
 73
     1
 44
1.0
1001
ACAD
1000
MTEXTBEGIN
1070
    73
1070
     1
1070
    44
1040
1.0
1070
    74
1070
     0
1000
MTEXTEND
  0
LINE
  5
630C
330
2
100
AcDbEntity
  8
外枠
 48
3.0
100
AcDbLine
 10
4735.000451142105
 20
789.1926604908319
 30
0.0
 11
5236.24122110872
 21
789.1926604908319
 31
0.0
  0
MTEXT
  5
638D
330
2
100
AcDbEntity
  8
寸法線
  6
Continuous
100
AcDbMText
 10
4037.98396679101
 20
826.8579345155105
 30
0.0
 40
30.0
 41
0.0
 71
     7
 72
     1
  1
(SS540)
 73
     1
 44
1.0
1001
ACAD
1000
MTEXTBEGIN
1070
    73
1070
     1
1070
    44
1040
1.0
1070
    74
1070
     0
1000
MTEXTEND
  0
INSERT
  5
63E1
102
{ACAD_REACTORS
330
642C
102
}
330
2
100
AcDbEntity
  8
本体
100
AcDbBlockReference
  2
*U60
 10
3510.128652219982
 20
723.9208662721587
 30
0.0
  0
ENDSEC
  0
SECTION
  2
OBJECTS
  0
DICTIONARY
  5
7
330
0
100
AcDbDictionary
281
     1
  3
ACAD_ASSOCNETWORK
350
6424
  3
ACAD_CIP_PREVIOUS_PRODUCT_INFO
350
4D09
  3
ACAD_COLOR
350
4CE7
  3
ACAD_DETAILVIEWSTYLE
350
4D00
  3
ACAD_GROUP
350
4D1
  3
ACAD_LAYOUT
350
4B7
  3
ACAD_MATERIAL
350
4CB5
  3
ACAD_MLEADERSTYLE
350
4CFC
  3
ACAD_MLINESTYLE
350
4D2
  3
ACAD_PLOTSETTINGS
350
4D3
  3
ACAD_PLOTSTYLENAME
350
6
  3
ACAD_SCALELIST
350
4CEA
  3
ACAD_SECTIONVIEWSTYLE
350
4CFE
  3
ACAD_TABLESTYLE
350
4CE8
  3
ACAD_VISUALSTYLE
350
4CCE
  3
ACDB_RECOMPOSE_DATA
350
6440
  3
AcDbVariableDictionary
350
4D64
  3
DWGPROPS
350
6441
  0
DICTIONARY
  5
4D27
330
4CC
100
AcDbDictionary
280
     1
281
     1
  0
DICTIONARY
  5
4F9B
330
4C4
100
AcDbDictionary
280
     1
281
     1
  3
ACAD_LAYERSTATES
360
4F9C
  0
DICTIONARY
  5
4D0A
330
64
100
AcDbDictionary
280
     1
281
     1
  3
ADSK_XREC_LAYER_RECONCILED
360
4D0B
  0
DICTIONARY
  5
4D0C
330
6A
100
AcDbDictionary
280
     1
281
     1
  3
ADSK_XREC_LAYER_RECONCILED
360
4D0D
  0
DICTIONARY
  5
4D0E
330
4
100
AcDbDictionary
280
     1
281
     1
  3
ADSK_XREC_LAYER_RECONCILED
360
4D0F
  0
DICTIONARY
  5
4D12
330
67
100
AcDbDictionary
280
     1
281
     1
  3
ADSK_XREC_LAYER_RECONCILED
360
4D13
  0
DICTIONARY
  5
4D14
330
11
100
AcDbDictionary
280
     1
281
     1
  3
ADSK_XREC_LAYER_RECONCILED
360
4D15
  0
DICTIONARY
  5
4D18
330
E13
100
AcDbDictionary
280
     1
281
     1
  3
ADSK_XREC_LAYER_RECONCILED
360
4D19
  0
DICTIONARY
  5
4D1A
330
E14
100
AcDbDictionary
280
     1
281
     1
  3
ADSK_XREC_LAYER_RECONCILED
360
4D1B
  0
DICTIONARY
  5
4B2
330
2
100
AcDbDictionary
280
     1
281
     1
  3
ACAD_ASSOCNETWORK
360
6422
  3
ACAD_LAYOUTSELFREF
360
4B3
  0
DICTIONARY
  5
4B9
330
4B8
100
AcDbDictionary
280
     1
281
     1
  3
ACAD_LAYOUTSELFREF
360
4BA
  0
DICTIONARY
  5
4BF
330
4BE
100
AcDbDictionary
280
     1
281
     1
  3
ACAD_LAYOUTSELFREF
360
4C0
  0
DICTIONARY
  5
4D77
330
4D76
100
AcDbDictionary
280
     1
281
     1
  0
DICTIONARY
  5
647F
330
63DE
100
AcDbDictionary
280
     1
281
     1
  3
AcDbBlockTableRecordData
360
6480
  0
DICTIONARY
  5
6424
102
{ACAD_REACTORS
330
7
102
}
330
7
100
AcDbDictionary
281
     1
  3
ACAD_ASSOCNETWORK
350
6425
  0
XRECORD
  5
4D09
102
{ACAD_REACTORS
330
7
102
}
330
7
100
AcDbXrecord
280
     1
300
ACDLT
300
2014
300
ACDLT_F_S
  0
DICTIONARY
  5
4CE7
102
{ACAD_REACTORS
330
7
102
}
330
7
100
AcDbDictionary
281
     1
  0
DICTIONARY
  5
4D00
102
{ACAD_REACTORS
330
7
102
}
330
7
100
AcDbDictionary
281
     1
  3
Metric50
350
4D01
  0
DICTIONARY
  5
4D1
102
{ACAD_REACTORS
330
7
102
}
330
7
100
AcDbDictionary
281
     1
  0
DICTIONARY
  5
4B7
102
{ACAD_REACTORS
330
7
102
}
330
7
100
AcDbDictionary
281
     1
  3
Layout1
350
4BD
  3
Layout2
350
4C3
  3
Model
350
4B6
  0
DICTIONARY
  5
4CB5
102
{ACAD_REACTORS
330
7
102
}
330
7
100
AcDbDictionary
281
     1
  3
ByBlock
350
4CBE
  3
ByLayer
350
4CB6
  3
Global
350
4CC6
  0
DICTIONARY
  5
4CFC
102
{ACAD_REACTORS
330
7
102
}
330
7
100
AcDbDictionary
281
     1
  3
Standard
350
4CFD
  0
DICTIONARY
  5
4D2
102
{ACAD_REACTORS
330
7
102
}
330
7
100
AcDbDictionary
281
     1
  3
Standard
350
4D4
  0
DICTIONARY
  5
4D3
102
{ACAD_REACTORS
330
7
102
}
330
7
100
AcDbDictionary
281
     1
  0
ACDBDICTIONARYWDFLT
  5
6
102
{ACAD_REACTORS
330
7
102
}
330
7
100
AcDbDictionary
281
     1
  3
Normal
350
5
100
AcDbDictionaryWithDefault
340
5
  0
DICTIONARY
  5
4CEA
102
{ACAD_REACTORS
330
7
102
}
330
7
100
AcDbDictionary
281
     1
  3
A0
350
4CEB
  3
A1
350
4CEC
  3
A2
350
4CED
  3
A3
350
4CEE
  3
A4
350
4CEF
  3
A5
350
4CF0
  3
A6
350
4CF1
  3
A7
350
4CF2
  3
A8
350
4CF3
  3
A9
350
4CF4
  3
B0
350
4CF5
  3
B1
350
4CF6
  3
B2
350
4CF7
  3
B3
350
4CF8
  3
B4
350
4CF9
  3
B5
350
4CFA
  3
B6
350
4CFB
  0
DICTIONARY
  5
4CFE
102
{ACAD_REACTORS
330
7
102
}
330
7
100
AcDbDictionary
281
     1
  3
Metric50
350
4CFF
  0
DICTIONARY
  5
4CE8
102
{ACAD_REACTORS
330
7
102
}
330
7
100
AcDbDictionary
281
     1
  3
Standard
350
4CE9
  0
DICTIONARY
  5
4CCE
102
{ACAD_REACTORS
330
7
102
}
330
7
100
AcDbDictionary
281
     1
  3
2dWireframe
350
4CD4
  3
Basic
350
4CD3
  3
Brighten
350
4CDA
  3
ColorChange
350
4CDE
  3
Conceptual
350
4CD7
  3
Dim
350
4CD9
  3
EdgeColorOff
350
4CE6
  3
Facepattern
350
4CDD
  3
Flat
350
4CCF
  3
FlatWithEdges
350
4CD0
  3
Gouraud
350
4CD1
  3
GouraudWithEdges
350
4CD2
  3
Hidden
350
4CD6
  3
JitterOff
350
4CE4
  3
Linepattern
350
4CDC
  3
OverhangOff
350
4CE5
  3
Realistic
350
4CD8
  3
Shaded
350
4CE3
  3
Shaded with edges
350
4CE2
  3
Shades of Gray
350
4CDF
  3
Sketchy
350
4CE0
  3
Thicken
350
4CDB
  3
Wireframe
350
4CD5
  3
X-Ray
350
4CE1
  0
XRECORD
  5
6440
102
{ACAD_REACTORS
330
7
102
}
330
7
100
AcDbXrecord
280
     1
 90
        1
330
4CE9
  0
DICTIONARY
  5
4D64
102
{ACAD_REACTORS
330
7
102
}
330
7
100
AcDbDictionary
281
     1
  3
CANNOSCALE
350
4D69
  3
CMLEADERSTYLE
350
4D66
  3
CTABLESTYLE
350
4D65
  3
CVIEWDETAILSTYLE
350
4D67
  3
CVIEWSECTIONSTYLE
350
4D68
  3
DIMASSOC
350
4D6C
  3
INDEXCTL
350
4D6B
  3
SORTENTS
350
4D6A
  3
XCLIPFRAME
350
643E
  0
XRECORD
  5
6441
102
{ACAD_REACTORS
330
7
102
}
330
7
100
AcDbXrecord
280
     1
  1
DWGPROPS COOKIE
  2

  3

  4

  6

  7

  8
TAKARA
  9

300
=
301
=
302
=
303
=
304
=
305
=
306
=
307
=
308
=
309
=
 40
0.1672698263888889
 41
2453510.558637211
 42
2457509.726286088
  1

 90
        0
  0
DICTIONARY
  5
4F9C
102
{ACAD_REACTORS
330
4F9B
102
}
330
4F9B
100
AcDbDictionary
281
     1
  0
XRECORD
  5
4D0B
102
{ACAD_REACTORS
330
4D0A
102
}
330
4D0A
100
AcDbXrecord
280
     1
290
     1
  0
XRECORD
  5
4D0D
102
{ACAD_REACTORS
330
4D0C
102
}
330
4D0C
100
AcDbXrecord
280
     1
290
     1
  0
XRECORD
  5
4D0F
102
{ACAD_REACTORS
330
4D0E
102
}
330
4D0E
100
AcDbXrecord
280
     1
290
     1
  0
XRECORD
  5
4D13
102
{ACAD_REACTORS
330
4D12
102
}
330
4D12
100
AcDbXrecord
280
     1
290
     1
  0
XRECORD
  5
4D15
102
{ACAD_REACTORS
330
4D14
102
}
330
4D14
100
AcDbXrecord
280
     1
290
     1
  0
XRECORD
  5
4D19
102
{ACAD_REACTORS
330
4D18
102
}
330
4D18
100
AcDbXrecord
280
     1
290
     1
  0
XRECORD
  5
4D1B
102
{ACAD_REACTORS
330
4D1A
102
}
330
4D1A
100
AcDbXrecord
280
     1
290
     1
  0
DICTIONARY
  5
6422
102
{ACAD_REACTORS
330
4B2
102
}
330
4B2
100
AcDbDictionary
281
     1
  3
ACAD_ASSOCNETWORK
350
6423
  0
XRECORD
  5
4B3
102
{ACAD_REACTORS
330
4B2
102
}
330
4B2
100
AcDbXrecord
280
     1
340
2
  0
XRECORD
  5
4BA
102
{ACAD_REACTORS
330
4B9
102
}
330
4B9
100
AcDbXrecord
280
     1
340
4B8
  0
XRECORD
  5
4C0
102
{ACAD_REACTORS
330
4BF
102
}
330
4BF
100
AcDbXrecord
280
     1
340
4BE
  0
DICTIONARY
  5
6480
102
{ACAD_REACTORS
330
647F
102
}
330
647F
100
AcDbDictionary
280
     1
281
     1
  3
Edit
360
6481
  0
ACDBASSOCNETWORK
  5
6425
102
{ACAD_REACTORS
330
6424
102
}
330
6424
100
AcDbAssocAction
 90
        1
 90
        1
330
0
360
0
 90
        0
 90
        0
 90
        0
100
AcDbAssocNetwork
 90
        0
 90
        1
 90
        1
330
6423
 90
        1
330
6423
  0
ACDBDETAILVIEWSTYLE
  5
4D01
102
{ACAD_XDICTIONARY
360
647D
102
}
102
{ACAD_REACTORS
330
4D00
102
}
330
4D00
100
AcDbModelDocViewStyle
 70
     0
  3
Metric50
290
     0
100
AcDbDetailViewStyle
 70
     0
 71
     0
 90
        3
 71
     1
340
9
 40
5.0
340
0
 40
5.0
300

 40
0.0
280
     1
 71
     2
340
8
 90
       25
 71
     3
340
9
 40
5.0
 90
        0
 40
15.0
 90
        1
300
%<\AcVar ViewDetailId>% (%<\AcVar ViewScale \f "%sn">%)
 71
     4
340
8
 90
       25
340
8
 90
       25
280
     0
  0
LAYOUT
  5
4BD
102
{ACAD_XDICTIONARY
360
6444
102
}
102
{ACAD_REACTORS
330
4B7
102
}
330
4B7
100
AcDbPlotSettings
  1

  2
None
  4

  6

 40
0.0
 41
0.0
 42
0.0
 43
0.0
 44
0.0
 45
0.0
 46
0.0
 47
0.0
 48
0.0
 49
0.0
140
0.0
141
0.0
142
1.0
143
1.0
 70
   688
 72
     0
 73
     0
 74
     5
  7
monochrome.ctb
 75
    16
147
1.0
148
0.0
149
0.0
100
AcDbLayout
  1
Layout1
 70
     1
 71
     1
 10
0.0
 20
0.0
 11
12.0
 21
9.0
 12
0.0
 22
0.0
 32
0.0
 14
0.0
 24
0.0
 34
0.0
 15
0.0
 25
0.0
 35
0.0
146
0.0
 13
0.0
 23
0.0
 33
0.0
 16
1.0
 26
0.0
 36
0.0
 17
0.0
 27
1.0
 37
0.0
 76
     0
330
4B8
  0
LAYOUT
  5
4C3
102
{ACAD_XDICTIONARY
360
6446
102
}
102
{ACAD_REACTORS
330
4B7
102
}
330
4B7
100
AcDbPlotSettings
  1

  2
None
  4

  6

 40
0.0
 41
0.0
 42
0.0
 43
0.0
 44
0.0
 45
0.0
 46
0.0
 47
0.0
 48
0.0
 49
0.0
140
0.0
141
0.0
142
1.0
143
1.0
 70
   688
 72
     0
 73
     0
 74
     5
  7
monochrome.ctb
 75
    16
147
1.0
148
0.0
149
0.0
100
AcDbLayout
  1
Layout2
 70
     1
 71
     2
 10
0.0
 20
0.0
 11
12.0
 21
9.0
 12
0.0
 22
0.0
 32
0.0
 14
0.0
 24
0.0
 34
0.0
 15
0.0
 25
0.0
 35
0.0
146
0.0
 13
0.0
 23
0.0
 33
0.0
 16
1.0
 26
0.0
 36
0.0
 17
0.0
 27
1.0
 37
0.0
 76
     0
330
4BE
  0
LAYOUT
  5
4B6
102
{ACAD_XDICTIONARY
360
6442
102
}
102
{ACAD_REACTORS
330
4B7
102
}
330
4B7
100
AcDbPlotSettings
  1

  2
EPSON LP-9400
  4
A4
  6

 40
5.873749732971191
 41
5.873747825622557
 42
5.873748779296875
 43
5.873748779296875
 44
209.9733276367186
 45
297.0106506347656
 46
2.339999999999998
 47
0.0
 48
0.0
 49
0.0
140
0.0
141
0.0
142
1.0
143
9.816891609963192
 70
 11956
 72
     1
 73
     1
 74
     1
  7
monochrome.ctb
 75
     0
147
0.1018652379725877
148
1264.94917075748
149
959.6633564695521
100
AcDbLayout
  1
Model
 70
     1
 71
     0
 10
0.0
 20
0.0
 11
12.0
 21
9.0
 12
0.0
 22
0.0
 32
0.0
 14
0.0
 24
0.0
 34
0.0
 15
0.0
 25
0.0
 35
0.0
146
0.0
 13
0.0
 23
0.0
 33
0.0
 16
1.0
 26
0.0
 36
0.0
 17
0.0
 27
1.0
 37
0.0
 76
     0
330
2
331
4CB3
  0
MATERIAL
  5
4CBE
102
{ACAD_XDICTIONARY
360
4CBF
102
}
102
{ACAD_REACTORS
330
4CB5
102
}
330
4CB5
100
AcDbMaterial
  1
ByBlock
 72
     0
 43
0.0008202099737533
 43
0.0
 43
0.0
 43
0.0
 43
0.0
 43
0.0008202099737533
 43
0.0
 43
0.0
 43
0.0
 43
0.0
 43
1.0
 43
0.0
 43
0.0
 43
0.0
 43
0.0
 43
1.0
 77
     0
 47
0.0008202099737533
 47
0.0
 47
0.0
 47
0.0
 47
0.0
 47
0.0008202099737533
 47
0.0
 47
0.0
 47
0.0
 47
0.0
 47
1.0
 47
0.0
 47
0.0
 47
0.0
 47
0.0
 47
1.0
171
     0
 49
0.0008202099737533
 49
0.0
 49
0.0
 49
0.0
 49
0.0
 49
0.0008202099737533
 49
0.0
 49
0.0
 49
0.0
 49
0.0
 49
1.0
 49
0.0
 49
0.0
 49
0.0
 49
0.0
 49
1.0
175
     0
142
0.0008202099737533
142
0.0
142
0.0
142
0.0
142
0.0
142
0.0008202099737533
142
0.0
142
0.0
142
0.0
142
0.0
142
1.0
142
0.0
142
0.0
142
0.0
142
0.0
142
1.0
179
     0
144
0.0008202099737533
144
0.0
144
0.0
144
0.0
144
0.0
144
0.0008202099737533
144
0.0
144
0.0
144
0.0
144
0.0
144
1.0
144
0.0
144
0.0
144
0.0
144
0.0
144
1.0
147
0.0008202099737533
147
0.0
147
0.0
147
0.0
147
0.0
147
0.0008202099737533
147
0.0
147
0.0
147
0.0
147
0.0
147
1.0
147
0.0
147
0.0
147
0.0
147
0.0
147
1.0
  0
MATERIAL
  5
4CB6
102
{ACAD_XDICTIONARY
360
4CB7
102
}
102
{ACAD_REACTORS
330
4CB5
102
}
330
4CB5
100
AcDbMaterial
  1
ByLayer
 72
     0
 43
0.0008202099737533
 43
0.0
 43
0.0
 43
0.0
 43
0.0
 43
0.0008202099737533
 43
0.0
 43
0.0
 43
0.0
 43
0.0
 43
1.0
 43
0.0
 43
0.0
 43
0.0
 43
0.0
 43
1.0
 77
     0
 47
0.0008202099737533
 47
0.0
 47
0.0
 47
0.0
 47
0.0
 47
0.0008202099737533
 47
0.0
 47
0.0
 47
0.0
 47
0.0
 47
1.0
 47
0.0
 47
0.0
 47
0.0
 47
0.0
 47
1.0
171
     0
 49
0.0008202099737533
 49
0.0
 49
0.0
 49
0.0
 49
0.0
 49
0.0008202099737533
 49
0.0
 49
0.0
 49
0.0
 49
0.0
 49
1.0
 49
0.0
 49
0.0
 49
0.0
 49
0.0
 49
1.0
175
     0
142
0.0008202099737533
142
0.0
142
0.0
142
0.0
142
0.0
142
0.0008202099737533
142
0.0
142
0.0
142
0.0
142
0.0
142
1.0
142
0.0
142
0.0
142
0.0
142
0.0
142
1.0
179
     0
144
0.0008202099737533
144
0.0
144
0.0
144
0.0
144
0.0
144
0.0008202099737533
144
0.0
144
0.0
144
0.0
144
0.0
144
1.0
144
0.0
144
0.0
144
0.0
144
0.0
144
1.0
147
0.0008202099737533
147
0.0
147
0.0
147
0.0
147
0.0
147
0.0008202099737533
147
0.0
147
0.0
147
0.0
147
0.0
147
1.0
147
0.0
147
0.0
147
0.0
147
0.0
147
1.0
  0
MATERIAL
  5
4CC6
102
{ACAD_XDICTIONARY
360
4CC7
102
}
102
{ACAD_REACTORS
330
4CB5
102
}
330
4CB5
100
AcDbMaterial
  1
Global
 72
     0
 43
0.0008202099737533
 43
0.0
 43
0.0
 43
0.0
 43
0.0
 43
0.0008202099737533
 43
0.0
 43
0.0
 43
0.0
 43
0.0
 43
1.0
 43
0.0
 43
0.0
 43
0.0
 43
0.0
 43
1.0
 77
     0
 47
0.0008202099737533
 47
0.0
 47
0.0
 47
0.0
 47
0.0
 47
0.0008202099737533
 47
0.0
 47
0.0
 47
0.0
 47
0.0
 47
1.0
 47
0.0
 47
0.0
 47
0.0
 47
0.0
 47
1.0
171
     0
 49
0.0008202099737533
 49
0.0
 49
0.0
 49
0.0
 49
0.0
 49
0.0008202099737533
 49
0.0
 49
0.0
 49
0.0
 49
0.0
 49
1.0
 49
0.0
 49
0.0
 49
0.0
 49
0.0
 49
1.0
175
     0
142
0.0008202099737533
142
0.0
142
0.0
142
0.0
142
0.0
142
0.0008202099737533
142
0.0
142
0.0
142
0.0
142
0.0
142
1.0
142
0.0
142
0.0
142
0.0
142
0.0
142
1.0
179
     0
144
0.0008202099737533
144
0.0
144
0.0
144
0.0
144
0.0
144
0.0008202099737533
144
0.0
144
0.0
144
0.0
144
0.0
144
1.0
144
0.0
144
0.0
144
0.0
144
0.0
144
1.0
147
0.0008202099737533
147
0.0
147
0.0
147
0.0
147
0.0
147
0.0008202099737533
147
0.0
147
0.0
147
0.0
147
0.0
147
1.0
147
0.0
147
0.0
147
0.0
147
0.0
147
1.0
  0
MLEADERSTYLE
  5
4CFD
102
{ACAD_XDICTIONARY
360
6479
102
}
102
{ACAD_REACTORS
330
4CFC
102
}
330
4CFC
100
AcDbMLeaderStyle
170
     2
171
     1
172
     0
 90
        2
 40
0.0
 41
0.0
173
     1
 91
-1056964608
340
4C8
 92
       -2
290
     1
 42
2.0
291
     1
 43
0.36
  3
Standard
 44
4.0
300

342
9
174
     1
178
     6
175
     1
176
     0
 93
-1056964608
 45
4.0
292
     0
297
     0
 46
4.0
 94
-1056964608
 47
1.0
 49
1.0
140
1.0
293
     1
141
0.0
294
     1
177
     0
142
1.0
295
     0
296
     0
143
0.125
1001
ACAD_MLEADERVER
1070
     2
  0
MLINESTYLE
  5
4D4
102
{ACAD_REACTORS
330
4D2
102
}
330
4D2
100
AcDbMlineStyle
  2
STANDARD
 70
     0
  3

 62
   256
 51
90.0
 52
90.0
 71
     2
 49
0.5
 62
   256
  6
BYLAYER
 49
-0.5
 62
   256
  6
BYLAYER
  0
ACDBPLACEHOLDER
  5
5
102
{ACAD_REACTORS
330
6
102
}
330
6
  0
SCALE
  5
4CEB
102
{ACAD_REACTORS
330
4CEA
102
}
330
4CEA
100
AcDbScale
 70
     0
300
1:1
140
1.0
141
1.0
290
     1
  0
SCALE
  5
4CEC
102
{ACAD_REACTORS
330
4CEA
102
}
330
4CEA
100
AcDbScale
 70
     0
300
1:2
140
1.0
141
2.0
290
     0
  0
SCALE
  5
4CED
102
{ACAD_REACTORS
330
4CEA
102
}
330
4CEA
100
AcDbScale
 70
     0
300
1:4
140
1.0
141
4.0
290
     0
  0
SCALE
  5
4CEE
102
{ACAD_REACTORS
330
4CEA
102
}
330
4CEA
100
AcDbScale
 70
     0
300
1:5
140
1.0
141
5.0
290
     0
  0
SCALE
  5
4CEF
102
{ACAD_REACTORS
330
4CEA
102
}
330
4CEA
100
AcDbScale
 70
     0
300
1:8
140
1.0
141
8.0
290
     0
  0
SCALE
  5
4CF0
102
{ACAD_REACTORS
330
4CEA
102
}
330
4CEA
100
AcDbScale
 70
     0
300
1:10
140
1.0
141
10.0
290
     0
  0
SCALE
  5
4CF1
102
{ACAD_REACTORS
330
4CEA
102
}
330
4CEA
100
AcDbScale
 70
     0
300
1:16
140
1.0
141
16.0
290
     0
  0
SCALE
  5
4CF2
102
{ACAD_REACTORS
330
4CEA
102
}
330
4CEA
100
AcDbScale
 70
     0
300
1:20
140
1.0
141
20.0
290
     0
  0
SCALE
  5
4CF3
102
{ACAD_REACTORS
330
4CEA
102
}
330
4CEA
100
AcDbScale
 70
     0
300
1:30
140
1.0
141
30.0
290
     0
  0
SCALE
  5
4CF4
102
{ACAD_REACTORS
330
4CEA
102
}
330
4CEA
100
AcDbScale
 70
     0
300
1:40
140
1.0
141
40.0
290
     0
  0
SCALE
  5
4CF5
102
{ACAD_REACTORS
330
4CEA
102
}
330
4CEA
100
AcDbScale
 70
     0
300
1:50
140
1.0
141
50.0
290
     0
  0
SCALE
  5
4CF6
102
{ACAD_REACTORS
330
4CEA
102
}
330
4CEA
100
AcDbScale
 70
     0
300
1:100
140
1.0
141
100.0
290
     0
  0
SCALE
  5
4CF7
102
{ACAD_REACTORS
330
4CEA
102
}
330
4CEA
100
AcDbScale
 70
     0
300
2:1
140
2.0
141
1.0
290
     0
  0
SCALE
  5
4CF8
102
{ACAD_REACTORS
330
4CEA
102
}
330
4CEA
100
AcDbScale
 70
     0
300
4:1
140
4.0
141
1.0
290
     0
  0
SCALE
  5
4CF9
102
{ACAD_REACTORS
330
4CEA
102
}
330
4CEA
100
AcDbScale
 70
     0
300
8:1
140
8.0
141
1.0
290
     0
  0
SCALE
  5
4CFA
102
{ACAD_REACTORS
330
4CEA
102
}
330
4CEA
100
AcDbScale
 70
     0
300
10:1
140
10.0
141
1.0
290
     0
  0
SCALE
  5
4CFB
102
{ACAD_REACTORS
330
4CEA
102
}
330
4CEA
100
AcDbScale
 70
     0
300
100:1
140
100.0
141
1.0
290
     0
  0
ACDBSECTIONVIEWSTYLE
  5
4CFF
102
{ACAD_XDICTIONARY
360
647B
102
}
102
{ACAD_REACTORS
330
4CFE
102
}
330
4CFE
100
AcDbModelDocViewStyle
 70
     0
  3
Metric50
290
     0
100
AcDbSectionViewStyle
 70
     0
 71
     0
 90
      102
 71
     1
340
9
 40
5.0
340
0
340
0
 40
5.0
300
I, O, Q, S, X, Z
 40
10.0
 90
        0
 40
2.5
 90
        0
 71
     2
340
8
 90
       25
340
8
 90
       50
 40
5.0
 40
2.5
 40
5.0
 71
     3
340
9
 40
5.0
 90
        0
 40
15.0
 90
        1
300
%<\AcVar ViewSectionStartId>%-%<\AcVar ViewSectionEndId>% (%<\AcVar ViewScale \f "%sn">%)
 71
     4
300
ANSI31
 40
1.0
 90
        0
290
     0
290
     0
 90
        6
 40
0.0
 40
1.570796326794896
 40
0.2617993877991494
 40
1.308996938995747
 40
-0.2617993877991494
 40
1.832595714594045
  0
TABLESTYLE
  5
4CE9
102
{ACAD_XDICTIONARY
360
4D1D
102
}
102
{ACAD_REACTORS
330
4CE8
102
}
330
4CE8
100
AcDbTableStyle
  3
Standard
 70
     0
 71
     0
 40
1.5
 41
1.5
280
     0
281
     0
  7
Standard
140
4.5
170
     2
 62
     0
 63
     7
283
     0
274
    -2
284
     1
 64
     0
275
    -2
285
     1
 65
     0
276
    -2
286
     1
 66
     0
277
    -2
287
     1
 67
     0
278
    -2
288
     1
 68
     0
279
    -2
289
     1
 69
     0
  7
Standard
140
6.0
170
     5
 62
     0
 63
     7
283
     0
274
    -2
284
     1
 64
     0
275
    -2
285
     1
 65
     0
276
    -2
286
     1
 66
     0
277
    -2
287
     1
 67
     0
278
    -2
288
     1
 68
     0
279
    -2
289
     1
 69
     0
  7
Standard
140
4.5
170
     5
 62
     0
 63
     7
283
     0
274
    -2
284
     1
 64
     0
275
    -2
285
     1
 65
     0
276
    -2
286
     1
 66
     0
277
    -2
287
     1
 67
     0
278
    -2
288
     1
 68
     0
279
    -2
289
     1
 69
     0
  0
VISUALSTYLE
  5
4CD4
102
{ACAD_XDICTIONARY
360
6452
102
}
102
{ACAD_REACTORS
330
4CCE
102
}
330
4CCE
100
AcDbVisualStyle
  2

 70
     4
 71
     0
 72
     2
 73
     0
 90
        0
 40
-0.6
 41
-30.0
 62
     5
 63
     7
 74
     1
 91
        4
 64
     7
 65
   257
 75
     1
175
     1
 42
1.0
 92
        0
 66
   257
 43
1.0
 76
     1
 77
     6
 78
     2
 67
     7
 79
     5
170
     0
171
     0
290
     0
174
     0
 93
        1
 44
0.0
173
     0
291
     0
 45
0.0
1001
ACAD
1000
AcDbSavedByObjectVersion
1070
     0
  0
VISUALSTYLE
  5
4CD3
102
{ACAD_XDICTIONARY
360
6450
102
}
102
{ACAD_REACTORS
330
4CCE
102
}
330
4CCE
100
AcDbVisualStyle
  2

 70
     7
 71
     1
 72
     0
 73
     1
 90
        0
 40
-0.6
 41
-30.0
 62
     5
 63
     7
 74
     0
 91
        4
 64
     7
 65
   257
 75
     1
175
     1
 42
1.0
 92
        8
 66
     7
 43
1.0
 76
     1
 77
     6
 78
     2
 67
     7
 79
     5
170
     0
171
     0
290
     0
174
     0
 93
        1
 44
0.0
173
     0
291
     1
 45
0.0
1001
ACAD
1000
AcDbSavedByObjectVersion
1070
     0
  0
VISUALSTYLE
  5
4CDA
102
{ACAD_XDICTIONARY
360
645E
102
}
102
{ACAD_REACTORS
330
4CCE
102
}
330
4CCE
100
AcDbVisualStyle
  2

 70
    12
 71
     2
 72
     2
 73
     0
 90
        0
 40
-0.6
 41
-30.0
 62
     5
 63
     7
 74
     1
 91
        4
 64
     7
 65
   257
 75
     1
175
     1
 42
1.0
 92
        8
 66
     7
 43
1.0
 76
     1
 77
     6
 78
     2
 67
     7
 79
     5
170
     0
171
     0
290
     0
174
     0
 93
        1
 44
50.0
173
     0
291
     1
 45
0.0
1001
ACAD
1000
AcDbSavedByObjectVersion
1070
     0
  0
VISUALSTYLE
  5
4CDE
102
{ACAD_XDICTIONARY
360
6466
102
}
102
{ACAD_REACTORS
330
4CCE
102
}
330
4CCE
100
AcDbVisualStyle
  2

 70
    16
 71
     2
 72
     2
 73
     3
 90
        0
 40
-0.6
 41
-30.0
 62
     5
 63
     8
 74
     1
 91
        4
 64
     7
 65
   257
 75
     1
175
     1
 42
1.0
 92
        8
 66
     8
 43
1.0
 76
     1
 77
     6
 78
     2
 67
     7
 79
     5
170
     0
171
     0
290
     0
174
     0
 93
        1
 44
0.0
173
     0
291
     1
 45
0.0
1001
ACAD
1000
AcDbSavedByObjectVersion
1070
     0
  0
VISUALSTYLE
  5
4CD7
102
{ACAD_XDICTIONARY
360
6458
102
}
102
{ACAD_REACTORS
330
4CCE
102
}
330
4CCE
100
AcDbVisualStyle
  2

 70
     9
 71
     3
 72
     2
 73
     0
 90
        0
 40
-0.6
 41
-30.0
 62
     5
 63
     7
 74
     2
 91
        2
 64
     7
 65
   257
 75
     1
175
     1
 42
179.0
 92
        8
 66
     7
 43
1.0
 76
     1
 77
     6
 78
     2
 67
     7
 79
     3
170
     0
171
     0
290
     0
174
     0
 93
        1
 44
0.0
173
     0
291
     0
 45
0.0
1001
ACAD
1000
AcDbSavedByObjectVersion
1070
     0
  0
VISUALSTYLE
  5
4CD9
102
{ACAD_XDICTIONARY
360
645C
102
}
102
{ACAD_REACTORS
330
4CCE
102
}
330
4CCE
100
AcDbVisualStyle
  2

 70
    11
 71
     2
 72
     2
 73
     0
 90
        0
 40
-0.6
 41
-30.0
 62
     5
 63
     7
 74
     1
 91
        4
 64
     7
 65
   257
 75
     1
175
     1
 42
1.0
 92
        8
 66
     7
 43
1.0
 76
     1
 77
     6
 78
     2
 67
     7
 79
     5
170
     0
171
     0
290
     0
174
     0
 93
        1
 44
-50.0
173
     0
291
     1
 45
0.0
1001
ACAD
1000
AcDbSavedByObjectVersion
1070
     0
  0
VISUALSTYLE
  5
4CE6
102
{ACAD_XDICTIONARY
360
6476
102
}
102
{ACAD_REACTORS
330
4CCE
102
}
330
4CCE
100
AcDbVisualStyle
  2

 70
    22
 71
     2
 72
     2
 73
     0
 90
        0
 40
-0.6
 41
-30.0
 62
     5
 63
     7
 74
     1
 91
        4
 64
     7
 65
   257
 75
     1
175
     1
 42
1.0
 92
        8
 66
     7
 43
1.0
 76
     1
 77
     6
 78
     2
 67
     7
 79
     5
170
     0
171
     0
290
     0
174
     0
 93
        1
 44
0.0
173
     0
291
     1
 45
0.0
1001
ACAD
1000
AcDbSavedByObjectVersion
1070
     0
  0
VISUALSTYLE
  5
4CDD
102
{ACAD_XDICTIONARY
360
6464
102
}
102
{ACAD_REACTORS
330
4CCE
102
}
330
4CCE
100
AcDbVisualStyle
  2

 70
    15
 71
     2
 72
     2
 73
     0
 90
        0
 40
-0.6
 41
-30.0
 62
     5
 63
     7
 74
     1
 91
        4
 64
     7
 65
   257
 75
     1
175
     1
 42
1.0
 92
        8
 66
     7
 43
1.0
 76
     1
 77
     6
 78
     2
 67
     7
 79
     5
170
     0
171
     0
290
     0
174
     0
 93
        1
 44
0.0
173
     0
291
     1
 45
0.0
1001
ACAD
1000
AcDbSavedByObjectVersion
1070
     0
  0
VISUALSTYLE
  5
4CCF
102
{ACAD_XDICTIONARY
360
6448
102
}
102
{ACAD_REACTORS
330
4CCE
102
}
330
4CCE
100
AcDbVisualStyle
  2

 70
     0
 71
     2
 72
     1
 73
     1
 90
        2
 40
-0.6
 41
30.0
 62
     5
 63
     7
 74
     0
 91
        0
 64
     7
 65
   257
 75
     1
175
     1
 42
1.0
 92
        8
 66
     7
 43
1.0
 76
     1
 77
     6
 78
     2
 67
     7
 79
     5
170
     0
171
     0
290
     0
174
     0
 93
       13
 44
0.0
173
     0
291
     1
 45
0.0
1001
ACAD
1000
AcDbSavedByObjectVersion
1070
     0
  0
VISUALSTYLE
  5
4CD0
102
{ACAD_XDICTIONARY
360
644A
102
}
102
{ACAD_REACTORS
330
4CCE
102
}
330
4CCE
100
AcDbVisualStyle
  2

 70
     1
 71
     2
 72
     1
 73
     1
 90
        2
 40
-0.6
 41
30.0
 62
     5
 63
     7
 74
     1
 91
        0
 64
     7
 65
   257
 75
     1
175
     1
 42
1.0
 92
        0
 66
   257
 43
1.0
 76
     1
 77
     6
 78
     2
 67
     7
 79
     5
170
     0
171
     0
290
     0
174
     0
 93
       13
 44
0.0
173
     0
291
     1
 45
0.0
1001
ACAD
1000
AcDbSavedByObjectVersion
1070
     0
  0
VISUALSTYLE
  5
4CD1
102
{ACAD_XDICTIONARY
360
644C
102
}
102
{ACAD_REACTORS
330
4CCE
102
}
330
4CCE
100
AcDbVisualStyle
  2

 70
     2
 71
     2
 72
     2
 73
     1
 90
        2
 40
-0.6
 41
30.0
 62
     5
 63
     7
 74
     0
 91
        0
 64
     7
 65
   257
 75
     1
175
     1
 42
1.0
 92
        0
 66
     7
 43
1.0
 76
     1
 77
     6
 78
     2
 67
     7
 79
     5
170
     0
171
     0
290
     0
174
     0
 93
       13
 44
0.0
173
     0
291
     1
 45
0.0
1001
ACAD
1000
AcDbSavedByObjectVersion
1070
     0
  0
VISUALSTYLE
  5
4CD2
102
{ACAD_XDICTIONARY
360
644E
102
}
102
{ACAD_REACTORS
330
4CCE
102
}
330
4CCE
100
AcDbVisualStyle
  2

 70
     3
 71
     2
 72
     2
 73
     1
 90
        2
 40
-0.6
 41
30.0
 62
     5
 63
     7
 74
     1
 91
        0
 64
     7
 65
   257
 75
     1
175
     1
 42
1.0
 92
        0
 66
   257
 43
1.0
 76
     1
 77
     6
 78
     2
 67
     7
 79
     5
170
     0
171
     0
290
     0
174
     0
 93
       13
 44
0.0
173
     0
291
     1
 45
0.0
1001
ACAD
1000
AcDbSavedByObjectVersion
1070
     0
  0
VISUALSTYLE
  5
4CD6
102
{ACAD_XDICTIONARY
360
6456
102
}
102
{ACAD_REACTORS
330
4CCE
102
}
330
4CCE
100
AcDbVisualStyle
  2

 70
     6
 71
     1
 72
     2
 73
     2
 90
        0
 40
-0.6
 41
-30.0
 62
     5
 63
     7
 74
     2
 91
        2
 64
     7
 65
   257
 75
     2
175
     1
 42
40.0
 92
        0
 66
   257
 43
1.0
 76
     1
 77
     6
 78
     2
 67
     7
 79
     3
170
     0
171
     0
290
     0
174
     0
 93
        1
 44
0.0
173
     0
291
     0
 45
0.0
1001
ACAD
1000
AcDbSavedByObjectVersion
1070
     0
  0
VISUALSTYLE
  5
4CE4
102
{ACAD_XDICTIONARY
360
6472
102
}
102
{ACAD_REACTORS
330
4CCE
102
}
330
4CCE
100
AcDbVisualStyle
  2

 70
    20
 71
     2
 72
     2
 73
     0
 90
        0
 40
-0.6
 41
-30.0
 62
     5
 63
     7
 74
     1
 91
        4
 64
     7
 65
   257
 75
     1
175
     1
 42
1.0
 92
       10
 66
     7
 43
1.0
 76
     1
 77
     6
 78
     2
 67
     7
 79
     5
170
     0
171
     0
290
     0
174
     0
 93
        1
 44
0.0
173
     0
291
     1
 45
0.0
1001
ACAD
1000
AcDbSavedByObjectVersion
1070
     0
  0
VISUALSTYLE
  5
4CDC
102
{ACAD_XDICTIONARY
360
6462
102
}
102
{ACAD_REACTORS
330
4CCE
102
}
330
4CCE
100
AcDbVisualStyle
  2

 70
    14
 71
     2
 72
     2
 73
     0
 90
        0
 40
-0.6
 41
-30.0
 62
     5
 63
     7
 74
     1
 91
        4
 64
     7
 65
   257
 75
     7
175
     7
 42
1.0
 92
        8
 66
     7
 43
1.0
 76
     1
 77
     6
 78
     2
 67
     7
 79
     5
170
     0
171
     0
290
     0
174
     0
 93
        1
 44
0.0
173
     0
291
     1
 45
0.0
1001
ACAD
1000
AcDbSavedByObjectVersion
1070
     0
  0
VISUALSTYLE
  5
4CE5
102
{ACAD_XDICTIONARY
360
6474
102
}
102
{ACAD_REACTORS
330
4CCE
102
}
330
4CCE
100
AcDbVisualStyle
  2

 70
    21
 71
     2
 72
     2
 73
     0
 90
        0
 40
-0.6
 41
-30.0
 62
     5
 63
     7
 74
     1
 91
        4
 64
     7
 65
   257
 75
     1
175
     1
 42
1.0
 92
        9
 66
     7
 43
1.0
 76
     1
 77
     6
 78
     2
 67
     7
 79
     5
170
     0
171
     0
290
     0
174
     0
 93
        1
 44
0.0
173
     0
291
     1
 45
0.0
1001
ACAD
1000
AcDbSavedByObjectVersion
1070
     0
  0
VISUALSTYLE
  5
4CD8
102
{ACAD_XDICTIONARY
360
645A
102
}
102
{ACAD_REACTORS
330
4CCE
102
}
330
4CCE
100
AcDbVisualStyle
  2

 70
     8
 71
     2
 72
     2
 73
     0
 90
        2
 40
-0.6
 41
30.0
 62
     5
 63
     7
 74
     0
 91
        0
 64
     7
 65
   257
 75
     1
175
     1
 42
1.0
 92
        8
 66
   257
 43
1.0
 76
     1
 77
     6
 78
     2
 67
     7
 79
     3
170
     0
171
     0
290
     0
174
     0
 93
       13
 44
0.0
173
     0
291
     0
 45
0.0
1001
ACAD
1000
AcDbSavedByObjectVersion
1070
     0
  0
VISUALSTYLE
  5
4CE3
102
{ACAD_XDICTIONARY
360
6470
102
}
102
{ACAD_REACTORS
330
4CCE
102
}
330
4CCE
100
AcDbVisualStyle
  2

 70
    27
 71
     2
 72
     2
 73
     1
 90
        2
 40
-0.6
 41
30.0
 62
     5
 63
     7
 74
     0
 91
        4
 64
     7
 65
   257
 75
     1
175
     1
 42
1.0
 92
        8
 66
   257
 43
1.0
 76
     1
 77
     6
 78
     2
 67
     8
 79
     3
170
     0
171
     0
290
     0
174
     0
 93
        5
 44
0.0
173
     0
291
     0
 45
0.0
1001
ACAD
1000
AcDbSavedByObjectVersion
1070
     0
  0
VISUALSTYLE
  5
4CE2
102
{ACAD_XDICTIONARY
360
646E
102
}
102
{ACAD_REACTORS
330
4CCE
102
}
330
4CCE
100
AcDbVisualStyle
  2

 70
    26
 71
     2
 72
     2
 73
     1
 90
        2
 40
-0.6
 41
30.0
 62
     5
 63
     7
 74
     1
 91
       10
 64
     7
 65
   257
 75
     2
175
     1
 42
1.0
 92
        8
 66
   257
 43
1.0
 76
     1
 77
     6
 78
     2
 67
     7
 79
     3
170
     0
171
     0
290
     0
174
     0
 93
        5
 44
0.0
173
     0
291
     0
 45
0.0
1001
ACAD
1000
AcDbSavedByObjectVersion
1070
     0
  0
VISUALSTYLE
  5
4CDF
102
{ACAD_XDICTIONARY
360
6468
102
}
102
{ACAD_REACTORS
330
4CCE
102
}
330
4CCE
100
AcDbVisualStyle
  2

 70
    23
 71
     2
 72
     2
 73
     3
 90
        0
 40
-0.6
 41
-30.0
 62
     5
 63
     7
 74
     2
 91
        2
 64
     7
 65
     7
 75
     1
175
     1
 42
40.0
 92
        8
 66
     7
 43
1.0
 76
     1
 77
     6
 78
     2
 67
     7
 79
     3
170
     0
171
     0
290
     0
174
     0
 93
        1
 44
0.0
173
     0
291
     0
 45
0.0
1001
ACAD
1000
AcDbSavedByObjectVersion
1070
     0
  0
VISUALSTYLE
  5
4CE0
102
{ACAD_XDICTIONARY
360
646A
102
}
102
{ACAD_REACTORS
330
4CCE
102
}
330
4CCE
100
AcDbVisualStyle
  2

 70
    24
 71
     1
 72
     2
 73
     2
 90
        0
 40
-0.6
 41
-30.0
 62
     5
 63
     7
 74
     2
 91
        2
 64
     7
 65
     7
 75
     1
175
     1
 42
40.0
 92
       11
 66
     7
 43
1.0
 76
     1
 77
     6
 78
     2
 67
     7
 79
     6
170
     0
171
     0
290
     0
174
     0
 93
        1
 44
0.0
173
     0
291
     0
 45
0.0
1001
ACAD
1000
AcDbSavedByObjectVersion
1070
     0
  0
VISUALSTYLE
  5
4CDB
102
{ACAD_XDICTIONARY
360
6460
102
}
102
{ACAD_REACTORS
330
4CCE
102
}
330
4CCE
100
AcDbVisualStyle
  2

 70
    13
 71
     2
 72
     2
 73
     0
 90
        0
 40
-0.6
 41
-30.0
 62
     5
 63
     7
 74
     1
 91
        4
 64
     7
 65
   257
 75
     1
175
     1
 42
1.0
 92
       12
 66
     7
 43
1.0
 76
     1
 77
     6
 78
     2
 67
     7
 79
     5
170
     0
171
     0
290
     0
174
     0
 93
        1
 44
0.0
173
     0
291
     1
 45
0.0
1001
ACAD
1000
AcDbSavedByObjectVersion
1070
     0
  0
VISUALSTYLE
  5
4CD5
102
{ACAD_XDICTIONARY
360
6454
102
}
102
{ACAD_REACTORS
330
4CCE
102
}
330
4CCE
100
AcDbVisualStyle
  2

 70
     5
 71
     0
 72
     2
 73
     0
 90
        0
 40
-0.6
 41
-30.0
 62
     5
 63
     7
 74
     1
 91
        4
 64
     7
 65
   257
 75
     1
175
     1
 42
1.0
 92
        0
 66
   257
 43
1.0
 76
     1
 77
     6
 78
     2
 67
     7
 79
     3
170
     0
171
     0
290
     0
174
     0
 93
        1
 44
0.0
173
     0
291
     0
 45
0.0
1001
ACAD
1000
AcDbSavedByObjectVersion
1070
     0
  0
VISUALSTYLE
  5
4CE1
102
{ACAD_XDICTIONARY
360
646C
102
}
102
{ACAD_REACTORS
330
4CCE
102
}
330
4CCE
100
AcDbVisualStyle
  2

 70
    25
 71
     2
 72
     2
 73
     1
 90
        1
 40
0.5
 41
-30.0
 62
     5
 63
     7
 74
     1
 91
        0
 64
     7
 65
   257
 75
     1
175
     1
 42
1.0
 92
        8
 66
     7
 43
1.0
 76
     1
 77
     6
 78
     2
 67
     7
 79
     3
170
     0
171
     0
290
     0
174
     0
 93
       13
 44
0.0
173
     0
291
     0
 45
0.0
1001
ACAD
1000
AcDbSavedByObjectVersion
1070
     0
  0
DICTIONARYVAR
  5
4D69
102
{ACAD_REACTORS
330
4D64
102
}
330
4D64
100
DictionaryVariables
280
     0
  1
1:1
  0
DICTIONARYVAR
  5
4D66
102
{ACAD_REACTORS
330
4D64
102
}
330
4D64
100
DictionaryVariables
280
     0
  1
STANDARD
  0
DICTIONARYVAR
  5
4D65
102
{ACAD_REACTORS
330
4D64
102
}
330
4D64
100
DictionaryVariables
280
     0
  1
STANDARD
  0
DICTIONARYVAR
  5
4D67
102
{ACAD_REACTORS
330
4D64
102
}
330
4D64
100
DictionaryVariables
280
     0
  1
Metric50
  0
DICTIONARYVAR
  5
4D68
102
{ACAD_REACTORS
330
4D64
102
}
330
4D64
100
DictionaryVariables
280
     0
  1
Metric50
  0
DICTIONARYVAR
  5
4D6C
102
{ACAD_REACTORS
330
4D64
102
}
330
4D64
100
DictionaryVariables
280
     0
  1
1
  0
DICTIONARYVAR
  5
4D6B
102
{ACAD_REACTORS
330
4D64
102
}
330
4D64
100
DictionaryVariables
280
     0
  1
0
  0
DICTIONARYVAR
  5
4D6A
102
{ACAD_REACTORS
330
4D64
102
}
330
4D64
100
DictionaryVariables
280
     0
  1
127
  0
DICTIONARYVAR
  5
643E
102
{ACAD_REACTORS
330
4D64
102
}
330
4D64
100
DictionaryVariables
280
     0
  1
2
  0
ACDBASSOCNETWORK
  5
6423
102
{ACAD_REACTORS
330
6422
102
}
330
6422
100
AcDbAssocAction
 90
        1
 90
        1
330
6425
360
0
 90
        1
 90
        0
 90
        0
100
AcDbAssocNetwork
 90
        0
 90
        1
 90
        1
360
6426
 90
        1
330
6426
  0
XRECORD
  5
6481
102
{ACAD_REACTORS
330
6480
102
}
330
6480
100
AcDbXrecord
280
     1
1070
     0
1070
     1
1070
     1
  0
DICTIONARY
  5
647D
330
4D01
100
AcDbDictionary
280
     1
281
     1
  3
ACAD_XREC_ROUNDTRIP
360
647E
  0
DICTIONARY
  5
6444
330
4BD
100
AcDbDictionary
280
     1
281
     1
  3
ACAD_XREC_ROUNDTRIP
360
6445
  0
DICTIONARY
  5
6446
330
4C3
100
AcDbDictionary
280
     1
281
     1
  3
ACAD_XREC_ROUNDTRIP
360
6447
  0
DICTIONARY
  5
6442
330
4B6
100
AcDbDictionary
280
     1
281
     1
  3
ACAD_XREC_ROUNDTRIP
360
6443
  0
DICTIONARY
  5
4CBF
330
4CBE
100
AcDbDictionary
280
     1
281
     1
  3
ACAD_XREC_ROUNDTRIP
360
6398
  3
BUMPTILE
360
4CC1
  3
DIFFUSETILE
360
4CC0
  3
OPACITYTILE
360
4CC4
  3
REFLECTIONTILE
360
4CC3
  3
REFRACTIONTILE
360
4CC5
  3
SPECULARTILE
360
4CC2
  0
DICTIONARY
  5
4CB7
330
4CB6
100
AcDbDictionary
280
     1
281
     1
  3
ACAD_XREC_ROUNDTRIP
360
6397
  3
BUMPTILE
360
4CB9
  3
DIFFUSETILE
360
4CB8
  3
OPACITYTILE
360
4CBC
  3
REFLECTIONTILE
360
4CBB
  3
REFRACTIONTILE
360
4CBD
  3
SPECULARTILE
360
4CBA
  0
DICTIONARY
  5
4CC7
330
4CC6
100
AcDbDictionary
280
     1
281
     1
  3
ACAD_XREC_ROUNDTRIP
360
6399
  3
BUMPTILE
360
4CC9
  3
DIFFUSETILE
360
4CC8
  3
OPACITYTILE
360
4CCC
  3
REFLECTIONTILE
360
4CCB
  3
REFRACTIONTILE
360
4CCD
  3
SPECULARTILE
360
4CCA
  0
DICTIONARY
  5
6479
330
4CFD
100
AcDbDictionary
280
     1
281
     1
  3
ACAD_XREC_ROUNDTRIP
360
647A
  0
DICTIONARY
  5
647B
330
4CFF
100
AcDbDictionary
280
     1
281
     1
  3
ACAD_XREC_ROUNDTRIP
360
647C
  0
DICTIONARY
  5
4D1D
330
4CE9
100
AcDbDictionary
280
     1
281
     1
  3
ACAD_ROUNDTRIP_2008_TABLESTYLE_CELLSTYLEMAP
360
643F
  3
ACAD_XREC_ROUNDTRIP
360
6478
  0
DICTIONARY
  5
6452
330
4CD4
100
AcDbDictionary
280
     1
281
     1
  3
ACAD_XREC_ROUNDTRIP
360
6453
  0
DICTIONARY
  5
6450
330
4CD3
100
AcDbDictionary
280
     1
281
     1
  3
ACAD_XREC_ROUNDTRIP
360
6451
  0
DICTIONARY
  5
645E
330
4CDA
100
AcDbDictionary
280
     1
281
     1
  3
ACAD_XREC_ROUNDTRIP
360
645F
  0
DICTIONARY
  5
6466
330
4CDE
100
AcDbDictionary
280
     1
281
     1
  3
ACAD_XREC_ROUNDTRIP
360
6467
  0
DICTIONARY
  5
6458
330
4CD7
100
AcDbDictionary
280
     1
281
     1
  3
ACAD_XREC_ROUNDTRIP
360
6459
  0
DICTIONARY
  5
645C
330
4CD9
100
AcDbDictionary
280
     1
281
     1
  3
ACAD_XREC_ROUNDTRIP
360
645D
  0
DICTIONARY
  5
6476
330
4CE6
100
AcDbDictionary
280
     1
281
     1
  3
ACAD_XREC_ROUNDTRIP
360
6477
  0
DICTIONARY
  5
6464
330
4CDD
100
AcDbDictionary
280
     1
281
     1
  3
ACAD_XREC_ROUNDTRIP
360
6465
  0
DICTIONARY
  5
6448
330
4CCF
100
AcDbDictionary
280
     1
281
     1
  3
ACAD_XREC_ROUNDTRIP
360
6449
  0
DICTIONARY
  5
644A
330
4CD0
100
AcDbDictionary
280
     1
281
     1
  3
ACAD_XREC_ROUNDTRIP
360
644B
  0
DICTIONARY
  5
644C
330
4CD1
100
AcDbDictionary
280
     1
281
     1
  3
ACAD_XREC_ROUNDTRIP
360
644D
  0
DICTIONARY
  5
644E
330
4CD2
100
AcDbDictionary
280
     1
281
     1
  3
ACAD_XREC_ROUNDTRIP
360
644F
  0
DICTIONARY
  5
6456
330
4CD6
100
AcDbDictionary
280
     1
281
     1
  3
ACAD_XREC_ROUNDTRIP
360
6457
  0
DICTIONARY
  5
6472
330
4CE4
100
AcDbDictionary
280
     1
281
     1
  3
ACAD_XREC_ROUNDTRIP
360
6473
  0
DICTIONARY
  5
6462
330
4CDC
100
AcDbDictionary
280
     1
281
     1
  3
ACAD_XREC_ROUNDTRIP
360
6463
  0
DICTIONARY
  5
6474
330
4CE5
100
AcDbDictionary
280
     1
281
     1
  3
ACAD_XREC_ROUNDTRIP
360
6475
  0
DICTIONARY
  5
645A
330
4CD8
100
AcDbDictionary
280
     1
281
     1
  3
ACAD_XREC_ROUNDTRIP
360
645B
  0
DICTIONARY
  5
6470
330
4CE3
100
AcDbDictionary
280
     1
281
     1
  3
ACAD_XREC_ROUNDTRIP
360
6471
  0
DICTIONARY
  5
646E
330
4CE2
100
AcDbDictionary
280
     1
281
     1
  3
ACAD_XREC_ROUNDTRIP
360
646F
  0
DICTIONARY
  5
6468
330
4CDF
100
AcDbDictionary
280
     1
281
     1
  3
ACAD_XREC_ROUNDTRIP
360
6469
  0
DICTIONARY
  5
646A
330
4CE0
100
AcDbDictionary
280
     1
281
     1
  3
ACAD_XREC_ROUNDTRIP
360
646B
  0
DICTIONARY
  5
6460
330
4CDB
100
AcDbDictionary
280
     1
281
     1
  3
ACAD_XREC_ROUNDTRIP
360
6461
  0
DICTIONARY
  5
6454
330
4CD5
100
AcDbDictionary
280
     1
281
     1
  3
ACAD_XREC_ROUNDTRIP
360
6455
  0
DICTIONARY
  5
646C
330
4CE1
100
AcDbDictionary
280
     1
281
     1
  3
ACAD_XREC_ROUNDTRIP
360
646D
  0
ACDBASSOCACTION
  5
6426
330
6423
100
AcDbAssocAction
 90
        1
 90
        1
330
6423
360
6427
 90
        1
 90
        3
 90
        3
360
642A
360
642B
360
642C
  0
XRECORD
  5
647E
102
{ACAD_REACTORS
330
647D
102
}
330
647D
100
AcDbXrecord
280
     1
102
DISPLAYNAME
  1
Metric50
102
FLAGS
 90
        0
  0
XRECORD
  5
6445
102
{ACAD_REACTORS
330
6444
102
}
330
6444
100
AcDbXrecord
280
     1
102
SHADEPLOT
 70
     0
102
SHADEPLOTRESLEVEL
 70
     2
102
SHADEPLOTCUSTOMDPI
 70
   300
  0
XRECORD
  5
6447
102
{ACAD_REACTORS
330
6446
102
}
330
6446
100
AcDbXrecord
280
     1
102
SHADEPLOT
 70
     0
102
SHADEPLOTRESLEVEL
 70
     2
102
SHADEPLOTCUSTOMDPI
 70
   300
  0
XRECORD
  5
6443
102
{ACAD_REACTORS
330
6442
102
}
330
6442
100
AcDbXrecord
280
     1
102
SHADEPLOT
 70
     0
102
SHADEPLOTRESLEVEL
 70
     2
102
SHADEPLOTCUSTOMDPI
 70
   300
  0
XRECORD
  5
6398
102
{ACAD_REACTORS
330
4CBF
102
}
330
4CBF
100
AcDbXrecord
280
     1
102
MATERIAL
148
0.0
149
0.0
149
0.0
 93
        0
 94
      127
282
     0
 72
     0
 77
     0
171
     0
175
     0
179
     0
273
     0
  0
XRECORD
  5
4CC1
102
{ACAD_REACTORS
330
4CBF
102
}
330
4CBF
100
AcDbXrecord
280
     1
270
     1
271
     1
  0
XRECORD
  5
4CC0
102
{ACAD_REACTORS
330
4CBF
102
}
330
4CBF
100
AcDbXrecord
280
     1
270
     1
271
     1
  0
XRECORD
  5
4CC4
102
{ACAD_REACTORS
330
4CBF
102
}
330
4CBF
100
AcDbXrecord
280
     1
270
     1
271
     1
  0
XRECORD
  5
4CC3
102
{ACAD_REACTORS
330
4CBF
102
}
330
4CBF
100
AcDbXrecord
280
     1
270
     1
271
     1
  0
XRECORD
  5
4CC5
102
{ACAD_REACTORS
330
4CBF
102
}
330
4CBF
100
AcDbXrecord
280
     1
270
     1
271
     1
  0
XRECORD
  5
4CC2
102
{ACAD_REACTORS
330
4CBF
102
}
330
4CBF
100
AcDbXrecord
280
     1
270
     1
271
     1
  0
XRECORD
  5
6397
102
{ACAD_REACTORS
330
4CB7
102
}
330
4CB7
100
AcDbXrecord
280
     1
102
MATERIAL
148
0.0
149
0.0
149
0.0
 93
        0
 94
      127
282
     0
 72
     0
 77
     0
171
     0
175
     0
179
     0
273
     0
  0
XRECORD
  5
4CB9
102
{ACAD_REACTORS
330
4CB7
102
}
330
4CB7
100
AcDbXrecord
280
     1
270
     1
271
     1
  0
XRECORD
  5
4CB8
102
{ACAD_REACTORS
330
4CB7
102
}
330
4CB7
100
AcDbXrecord
280
     1
270
     1
271
     1
  0
XRECORD
  5
4CBC
102
{ACAD_REACTORS
330
4CB7
102
}
330
4CB7
100
AcDbXrecord
280
     1
270
     1
271
     1
  0
XRECORD
  5
4CBB
102
{ACAD_REACTORS
330
4CB7
102
}
330
4CB7
100
AcDbXrecord
280
     1
270
     1
271
     1
  0
XRECORD
  5
4CBD
102
{ACAD_REACTORS
330
4CB7
102
}
330
4CB7
100
AcDbXrecord
280
     1
270
     1
271
     1
  0
XRECORD
  5
4CBA
102
{ACAD_REACTORS
330
4CB7
102
}
330
4CB7
100
AcDbXrecord
280
     1
270
     1
271
     1
  0
XRECORD
  5
6399
102
{ACAD_REACTORS
330
4CC7
102
}
330
4CC7
100
AcDbXrecord
280
     1
102
MATERIAL
148
0.0
149
0.0
149
0.0
 93
        0
 94
      127
282
     0
 72
     0
 77
     0
171
     0
175
     0
179
     0
273
     0
  0
XRECORD
  5
4CC9
102
{ACAD_REACTORS
330
4CC7
102
}
330
4CC7
100
AcDbXrecord
280
     1
270
     1
271
     1
  0
XRECORD
  5
4CC8
102
{ACAD_REACTORS
330
4CC7
102
}
330
4CC7
100
AcDbXrecord
280
     1
270
     1
271
     1
  0
XRECORD
  5
4CCC
102
{ACAD_REACTORS
330
4CC7
102
}
330
4CC7
100
AcDbXrecord
280
     1
270
     1
271
     1
  0
XRECORD
  5
4CCB
102
{ACAD_REACTORS
330
4CC7
102
}
330
4CC7
100
AcDbXrecord
280
     1
270
     1
271
     1
  0
XRECORD
  5
4CCD
102
{ACAD_REACTORS
330
4CC7
102
}
330
4CC7
100
AcDbXrecord
280
     1
270
     1
271
     1
  0
XRECORD
  5
4CCA
102
{ACAD_REACTORS
330
4CC7
102
}
330
4CC7
100
AcDbXrecord
280
     1
270
     1
271
     1
  0
XRECORD
  5
647A
102
{ACAD_REACTORS
330
6479
102
}
330
6479
100
AcDbXrecord
280
     1
102
ACAD_ROUNDTRIP_2012_MLEADER_STYLE
298
     1
  0
XRECORD
  5
647C
102
{ACAD_REACTORS
330
647B
102
}
330
647B
100
AcDbXrecord
280
     1
102
DISPLAYNAME
  1
Metric50
102
FLAGS
 90
        0
  0
CELLSTYLEMAP
  5
643F
102
{ACAD_REACTORS
330
4D1D
102
}
330
4D1D
100
AcDbCellStyleMap
 90
        3
300
CELLSTYLE
  1
TABLEFORMAT_BEGIN
 90
        5
170
     1
 91
        0
 92
    32768
 62
   257
 93
        1
300
CONTENTFORMAT
  1
CONTENTFORMAT_BEGIN
 90
        0
 91
        0
 92
      512
 93
        0
300

 40
0.0
140
1.0
 94
        5
 62
     0
340
9
144
6.0
309
CONTENTFORMAT_END
171
     1
301
MARGIN
  1
CELLMARGIN_BEGIN
 40
1.5
 40
1.5
 40
1.5
 40
1.5
 40
0.18
 40
0.18
309
CELLMARGIN_END
 94
        6
 95
        1
302
GRIDFORMAT
  1
GRIDFORMAT_BEGIN
 90
        0
 91
        1
 62
     0
 92
       -2
340
0
 93
        0
 40
1.125
309
GRIDFORMAT_END
 95
        2
302
GRIDFORMAT
  1
GRIDFORMAT_BEGIN
 90
        0
 91
        1
 62
     0
 92
       -2
340
0
 93
        0
 40
1.125
309
GRIDFORMAT_END
 95
        4
302
GRIDFORMAT
  1
GRIDFORMAT_BEGIN
 90
        0
 91
        1
 62
     0
 92
       -2
340
0
 93
        0
 40
1.125
309
GRIDFORMAT_END
 95
        8
302
GRIDFORMAT
  1
GRIDFORMAT_BEGIN
 90
        0
 91
        1
 62
     0
 92
       -2
340
0
 93
        0
 40
1.125
309
GRIDFORMAT_END
 95
       16
302
GRIDFORMAT
  1
GRIDFORMAT_BEGIN
 90
        0
 91
        1
 62
     0
 92
       -2
340
0
 93
        0
 40
1.125
309
GRIDFORMAT_END
 95
       32
302
GRIDFORMAT
  1
GRIDFORMAT_BEGIN
 90
        0
 91
        1
 62
     0
 92
       -2
340
0
 93
        0
 40
1.125
309
GRIDFORMAT_END
309
TABLEFORMAT_END
  1
CELLSTYLE_BEGIN
 90
        1
 91
        1
300
_TITLE
309
CELLSTYLE_END
300
CELLSTYLE
  1
TABLEFORMAT_BEGIN
 90
        5
170
     1
 91
        0
 92
        0
 62
   257
 93
        1
300
CONTENTFORMAT
  1
CONTENTFORMAT_BEGIN
 90
        0
 91
        0
 92
      512
 93
        0
300

 40
0.0
140
1.0
 94
        5
 62
     0
340
9
144
4.5
309
CONTENTFORMAT_END
171
     1
301
MARGIN
  1
CELLMARGIN_BEGIN
 40
1.5
 40
1.5
 40
1.5
 40
1.5
 40
0.18
 40
0.18
309
CELLMARGIN_END
 94
        6
 95
        1
302
GRIDFORMAT
  1
GRIDFORMAT_BEGIN
 90
        0
 91
        1
 62
     0
 92
       -2
340
0
 93
        0
 40
1.125
309
GRIDFORMAT_END
 95
        2
302
GRIDFORMAT
  1
GRIDFORMAT_BEGIN
 90
        0
 91
        1
 62
     0
 92
       -2
340
0
 93
        0
 40
1.125
309
GRIDFORMAT_END
 95
        4
302
GRIDFORMAT
  1
GRIDFORMAT_BEGIN
 90
        0
 91
        1
 62
     0
 92
       -2
340
0
 93
        0
 40
1.125
309
GRIDFORMAT_END
 95
        8
302
GRIDFORMAT
  1
GRIDFORMAT_BEGIN
 90
        0
 91
        1
 62
     0
 92
       -2
340
0
 93
        0
 40
1.125
309
GRIDFORMAT_END
 95
       16
302
GRIDFORMAT
  1
GRIDFORMAT_BEGIN
 90
        0
 91
        1
 62
     0
 92
       -2
340
0
 93
        0
 40
1.125
309
GRIDFORMAT_END
 95
       32
302
GRIDFORMAT
  1
GRIDFORMAT_BEGIN
 90
        0
 91
        1
 62
     0
 92
       -2
340
0
 93
        0
 40
1.125
309
GRIDFORMAT_END
309
TABLEFORMAT_END
  1
CELLSTYLE_BEGIN
 90
        2
 91
        1
300
_HEADER
309
CELLSTYLE_END
300
CELLSTYLE
  1
TABLEFORMAT_BEGIN
 90
        5
170
     1
 91
        0
 92
        0
 62
   257
 93
        1
300
CONTENTFORMAT
  1
CONTENTFORMAT_BEGIN
 90
        0
 91
        0
 92
      512
 93
        0
300

 40
0.0
140
1.0
 94
        2
 62
     0
340
9
144
4.5
309
CONTENTFORMAT_END
171
     1
301
MARGIN
  1
CELLMARGIN_BEGIN
 40
1.5
 40
1.5
 40
1.5
 40
1.5
 40
0.18
 40
0.18
309
CELLMARGIN_END
 94
        6
 95
        1
302
GRIDFORMAT
  1
GRIDFORMAT_BEGIN
 90
        0
 91
        1
 62
     0
 92
       -2
340
0
 93
        0
 40
1.125
309
GRIDFORMAT_END
 95
        2
302
GRIDFORMAT
  1
GRIDFORMAT_BEGIN
 90
        0
 91
        1
 62
     0
 92
       -2
340
0
 93
        0
 40
1.125
309
GRIDFORMAT_END
 95
        4
302
GRIDFORMAT
  1
GRIDFORMAT_BEGIN
 90
        0
 91
        1
 62
     0
 92
       -2
340
0
 93
        0
 40
1.125
309
GRIDFORMAT_END
 95
        8
302
GRIDFORMAT
  1
GRIDFORMAT_BEGIN
 90
        0
 91
        1
 62
     0
 92
       -2
340
0
 93
        0
 40
1.125
309
GRIDFORMAT_END
 95
       16
302
GRIDFORMAT
  1
GRIDFORMAT_BEGIN
 90
        0
 91
        1
 62
     0
 92
       -2
340
0
 93
        0
 40
1.125
309
GRIDFORMAT_END
 95
       32
302
GRIDFORMAT
  1
GRIDFORMAT_BEGIN
 90
        0
 91
        1
 62
     0
 92
       -2
340
0
 93
        0
 40
1.125
309
GRIDFORMAT_END
309
TABLEFORMAT_END
  1
CELLSTYLE_BEGIN
 90
        3
 91
        2
300
_DATA
309
CELLSTYLE_END
  0
XRECORD
  5
6478
102
{ACAD_REACTORS
330
4D1D
102
}
330
4D1D
100
AcDbXrecord
280
     1
102
ACAD_ROUNDTRIP_PRE2007_TABLESTYLE
 90
      512
 91
        0
  1

 92
      512
 93
        0
  2

 94
      512
 95
        0
  3

  0
XRECORD
  5
6453
102
{ACAD_REACTORS
330
6452
102
}
330
6452
100
AcDbXrecord
280
     1
102
RTVSPost2010Prop28
280
     1
102
RTVSPost2010PropOp28
 70
     1
102
RTVSPost2010Prop29
280
     1
102
RTVSPost2010PropOp29
 70
     1
102
RTVSPost2010Prop30
280
     0
102
RTVSPost2010PropOp30
 70
     1
102
RTVSPost2010Prop31
280
     0
102
RTVSPost2010PropOp31
 70
     1
102
RTVSPost2010Prop32
280
     0
102
RTVSPost2010PropOp32
 70
     1
102
RTVSPost2010Prop33
280
     0
102
RTVSPost2010PropOp33
 70
     1
102
RTVSPost2010Prop34
280
     0
102
RTVSPost2010PropOp34
 70
     1
102
RTVSPost2010Prop35
280
     0
102
RTVSPost2010PropOp35
 70
     1
102
RTVSPost2010Prop36
280
     0
102
RTVSPost2010PropOp36
 70
     1
102
RTVSPost2010Prop37
 90
       50
102
RTVSPost2010PropOp37
 70
     1
102
RTVSPost2010Prop38
140
0.0
102
RTVSPost2010PropOp38
 70
     1
102
RTVSPost2010Prop39
140
1.0
102
RTVSPost2010PropOp39
 70
     1
102
RTVSPost2010Prop40
 90
        0
102
RTVSPost2010PropOp40
 70
     1
102
RTVSPost2010Prop41ColorIndex
 90
       18
102
RTVSPost2010Prop41ColorRGB
 90
        0
102
RTVSPost2010PropOp41
 70
     1
102
RTVSPost2010Prop42
 90
       50
102
RTVSPost2010PropOp42
 70
     1
102
RTVSPost2010Prop43
 90
        3
102
RTVSPost2010PropOp43
 70
     1
102
RTVSPost2010Prop44ColorIndex
 90
        5
102
RTVSPost2010Prop44ColorRGB
 90
      255
102
RTVSPost2010PropOp44
 70
     1
102
RTVSPost2010Prop45
280
     0
102
RTVSPost2010PropOp45
 70
     1
102
RTVSPost2010Prop46
 90
       50
102
RTVSPost2010PropOp46
 70
     1
102
RTVSPost2010Prop47
 90
       50
102
RTVSPost2010PropOp47
 70
     1
102
RTVSPost2010Prop48
 90
       50
102
RTVSPost2010PropOp48
 70
     1
102
RTVSPost2010Prop49
280
     0
102
RTVSPost2010PropOp49
 70
     1
102
RTVSPost2010Prop50
 90
       50
102
RTVSPost2010PropOp50
 70
     1
102
RTVSPost2010Prop51ColorIndex
 90
      256
102
RTVSPost2010Prop51ColorRGB
 90
-16777216
102
RTVSPost2010PropOp51
 70
     0
102
RTVSPost2010Prop52
140
1.0
102
RTVSPost2010PropOp52
 70
     0
102
RTVSPost2010Prop53
 90
        2
102
RTVSPost2010PropOp53
 70
     1
102
RTVSPost2010Prop54
  1
strokes_ogs.tif
102
RTVSPost2010PropOp54
 70
     1
102
RTVSPost2010Prop55
280
     0
102
RTVSPost2010PropOp55
 70
     1
102
RTVSPost2010Prop56
140
1.0
102
RTVSPost2010PropOp56
 70
     1
102
RTVSPost2010Prop57
140
1.0
102
RTVSPost2010PropOp57
 70
     1
102
RTVSPropertyOp0
 70
     1
102
RTVSPropertyOp1
 70
     1
102
RTVSPropertyOp2
 70
     1
102
RTVSPropertyOp3
 70
     1
102
RTVSPropertyOp4
 70
     1
102
RTVSPropertyOp5
 70
     1
102
RTVSPropertyOp6
 70
     1
102
RTVSPropertyOp7
 70
     1
102
RTVSPropertyOp8
 70
     1
102
RTVSPropertyOp9
 70
     1
102
RTVSPropertyOp10
 70
     1
102
RTVSPropertyOp11
 70
     1
102
RTVSPropertyOp12
 70
     1
102
RTVSPropertyOp13
 70
     1
102
RTVSPropertyOp14
 70
     1
102
RTVSPropertyOp15
 70
     1
102
RTVSPropertyOp16
 70
     1
102
RTVSPropertyOp17
 70
     1
102
RTVSPropertyOp18
 70
     1
102
RTVSPropertyOp19
 70
     1
102
RTVSPropertyOp20
 70
     1
102
RTVSPropertyOp21
 70
     1
102
RTVSPropertyOp22
 70
     1
102
RTVSPropertyOp23
 70
     1
102
RTVSPropertyOp24
 70
     1
102
RTVSPropertyOp25
 70
     1
102
RTVSPropertyOp26
 70
     1
102
RTVSPropertyOp27
 70
     1
102
RTVSPropertyOp28
 70
     1
102
RTVSPropertyOp29
 70
     1
102
RTVSPropertyOp30
 70
     1
102
RTVSPropertyOp31
 70
     1
102
RTVSPropertyOp32
 70
     1
102
RTVSPropertyOp33
 70
     1
102
RTVSPropertyOp34
 70
     1
102
RTVSPropertyOp35
 70
     1
102
RTVSPropertyOp36
 70
     1
102
RTVSPropertyOp37
 70
     1
102
RTVSPropertyOp38
 70
     1
102
RTVSPropertyOp39
 70
     1
102
RTVSPropertyOp40
 70
     1
102
RTVSPropertyOp41
 70
     1
102
RTVSPropertyOp42
 70
     1
102
RTVSPropertyOp43
 70
     1
102
RTVSPropertyOp44
 70
     1
102
RTVSPropertyOp45
 70
     1
102
RTVSPropertyOp46
 70
     1
102
RTVSPropertyOp47
 70
     1
102
RTVSPropertyOp48
 70
     1
102
RTVSPropertyOp49
 70
     1
102
RTVSPropertyOp50
 70
     1
102
RTVSPropertyOp51
 70
     0
102
RTVSPropertyOp52
 70
     0
102
RTVSPropertyOp53
 70
     1
102
RTVSPropertyOp54
 70
     1
102
RTVSPropertyOp55
 70
     1
102
RTVSPropertyOp56
 70
     1
102
RTVSPropertyOp57
 70
     1
102
RTVSPropertyOp58
 70
     1
102
RTVSPropertyOp59
 70
     1
102
RTVSPropertyOp60
 70
     1
102
RTVSPropertyOp61
 70
     1
102
RTVSPropertyOp62
 70
     1
  0
XRECORD
  5
6451
102
{ACAD_REACTORS
330
6450
102
}
330
6450
100
AcDbXrecord
280
     1
102
RTVSPost2010Prop28
280
     0
102
RTVSPost2010PropOp28
 70
     1
102
RTVSPost2010Prop29
280
     1
102
RTVSPost2010PropOp29
 70
     1
102
RTVSPost2010Prop30
280
     1
102
RTVSPost2010PropOp30
 70
     1
102
RTVSPost2010Prop31
280
     0
102
RTVSPost2010PropOp31
 70
     1
102
RTVSPost2010Prop32
280
     0
102
RTVSPost2010PropOp32
 70
     1
102
RTVSPost2010Prop33
280
     0
102
RTVSPost2010PropOp33
 70
     1
102
RTVSPost2010Prop34
280
     0
102
RTVSPost2010PropOp34
 70
     1
102
RTVSPost2010Prop35
280
     0
102
RTVSPost2010PropOp35
 70
     1
102
RTVSPost2010Prop36
280
     0
102
RTVSPost2010PropOp36
 70
     1
102
RTVSPost2010Prop37
 90
       50
102
RTVSPost2010PropOp37
 70
     1
102
RTVSPost2010Prop38
140
0.0
102
RTVSPost2010PropOp38
 70
     1
102
RTVSPost2010Prop39
140
1.0
102
RTVSPost2010PropOp39
 70
     1
102
RTVSPost2010Prop40
 90
        0
102
RTVSPost2010PropOp40
 70
     1
102
RTVSPost2010Prop41ColorIndex
 90
       18
102
RTVSPost2010Prop41ColorRGB
 90
        0
102
RTVSPost2010PropOp41
 70
     1
102
RTVSPost2010Prop42
 90
       50
102
RTVSPost2010PropOp42
 70
     1
102
RTVSPost2010Prop43
 90
        3
102
RTVSPost2010PropOp43
 70
     1
102
RTVSPost2010Prop44ColorIndex
 90
        5
102
RTVSPost2010Prop44ColorRGB
 90
      255
102
RTVSPost2010PropOp44
 70
     1
102
RTVSPost2010Prop45
280
     0
102
RTVSPost2010PropOp45
 70
     1
102
RTVSPost2010Prop46
 90
       50
102
RTVSPost2010PropOp46
 70
     1
102
RTVSPost2010Prop47
 90
       50
102
RTVSPost2010PropOp47
 70
     1
102
RTVSPost2010Prop48
 90
       50
102
RTVSPost2010PropOp48
 70
     1
102
RTVSPost2010Prop49
280
     0
102
RTVSPost2010PropOp49
 70
     1
102
RTVSPost2010Prop50
 90
       50
102
RTVSPost2010PropOp50
 70
     1
102
RTVSPost2010Prop51ColorIndex
 90
      256
102
RTVSPost2010Prop51ColorRGB
 90
-16777216
102
RTVSPost2010PropOp51
 70
     0
102
RTVSPost2010Prop52
140
1.0
102
RTVSPost2010PropOp52
 70
     0
102
RTVSPost2010Prop53
 90
        2
102
RTVSPost2010PropOp53
 70
     1
102
RTVSPost2010Prop54
  1
strokes_ogs.tif
102
RTVSPost2010PropOp54
 70
     1
102
RTVSPost2010Prop55
280
     0
102
RTVSPost2010PropOp55
 70
     1
102
RTVSPost2010Prop56
140
1.0
102
RTVSPost2010PropOp56
 70
     1
102
RTVSPost2010Prop57
140
1.0
102
RTVSPost2010PropOp57
 70
     1
102
RTVSPropertyOp0
 70
     1
102
RTVSPropertyOp1
 70
     1
102
RTVSPropertyOp2
 70
     1
102
RTVSPropertyOp3
 70
     1
102
RTVSPropertyOp4
 70
     1
102
RTVSPropertyOp5
 70
     1
102
RTVSPropertyOp6
 70
     1
102
RTVSPropertyOp7
 70
     1
102
RTVSPropertyOp8
 70
     1
102
RTVSPropertyOp9
 70
     1
102
RTVSPropertyOp10
 70
     1
102
RTVSPropertyOp11
 70
     1
102
RTVSPropertyOp12
 70
     1
102
RTVSPropertyOp13
 70
     1
102
RTVSPropertyOp14
 70
     1
102
RTVSPropertyOp15
 70
     1
102
RTVSPropertyOp16
 70
     1
102
RTVSPropertyOp17
 70
     1
102
RTVSPropertyOp18
 70
     1
102
RTVSPropertyOp19
 70
     1
102
RTVSPropertyOp20
 70
     1
102
RTVSPropertyOp21
 70
     1
102
RTVSPropertyOp22
 70
     1
102
RTVSPropertyOp23
 70
     1
102
RTVSPropertyOp24
 70
     1
102
RTVSPropertyOp25
 70
     1
102
RTVSPropertyOp26
 70
     1
102
RTVSPropertyOp27
 70
     1
102
RTVSPropertyOp28
 70
     1
102
RTVSPropertyOp29
 70
     1
102
RTVSPropertyOp30
 70
     1
102
RTVSPropertyOp31
 70
     1
102
RTVSPropertyOp32
 70
     1
102
RTVSPropertyOp33
 70
     1
102
RTVSPropertyOp34
 70
     1
102
RTVSPropertyOp35
 70
     1
102
RTVSPropertyOp36
 70
     1
102
RTVSPropertyOp37
 70
     1
102
RTVSPropertyOp38
 70
     1
102
RTVSPropertyOp39
 70
     1
102
RTVSPropertyOp40
 70
     1
102
RTVSPropertyOp41
 70
     1
102
RTVSPropertyOp42
 70
     1
102
RTVSPropertyOp43
 70
     1
102
RTVSPropertyOp44
 70
     1
102
RTVSPropertyOp45
 70
     1
102
RTVSPropertyOp46
 70
     1
102
RTVSPropertyOp47
 70
     1
102
RTVSPropertyOp48
 70
     1
102
RTVSPropertyOp49
 70
     1
102
RTVSPropertyOp50
 70
     1
102
RTVSPropertyOp51
 70
     0
102
RTVSPropertyOp52
 70
     0
102
RTVSPropertyOp53
 70
     1
102
RTVSPropertyOp54
 70
     1
102
RTVSPropertyOp55
 70
     1
102
RTVSPropertyOp56
 70
     1
102
RTVSPropertyOp57
 70
     1
102
RTVSPropertyOp58
 70
     1
102
RTVSPropertyOp59
 70
     1
102
RTVSPropertyOp60
 70
     1
102
RTVSPropertyOp61
 70
     1
102
RTVSPropertyOp62
 70
     1
  0
XRECORD
  5
645F
102
{ACAD_REACTORS
330
645E
102
}
330
645E
100
AcDbXrecord
280
     1
102
RTVSPost2010Prop28
280
     0
102
RTVSPost2010PropOp28
 70
     1
102
RTVSPost2010Prop29
280
     1
102
RTVSPost2010PropOp29
 70
     1
102
RTVSPost2010Prop30
280
     1
102
RTVSPost2010PropOp30
 70
     1
102
RTVSPost2010Prop31
280
     0
102
RTVSPost2010PropOp31
 70
     1
102
RTVSPost2010Prop32
280
     0
102
RTVSPost2010PropOp32
 70
     1
102
RTVSPost2010Prop33
280
     0
102
RTVSPost2010PropOp33
 70
     1
102
RTVSPost2010Prop34
280
     0
102
RTVSPost2010PropOp34
 70
     1
102
RTVSPost2010Prop35
280
     0
102
RTVSPost2010PropOp35
 70
     1
102
RTVSPost2010Prop36
280
     0
102
RTVSPost2010PropOp36
 70
     1
102
RTVSPost2010Prop37
 90
       50
102
RTVSPost2010PropOp37
 70
     1
102
RTVSPost2010Prop38
140
0.0
102
RTVSPost2010PropOp38
 70
     1
102
RTVSPost2010Prop39
140
1.0
102
RTVSPost2010PropOp39
 70
     1
102
RTVSPost2010Prop40
 90
        0
102
RTVSPost2010PropOp40
 70
     1
102
RTVSPost2010Prop41ColorIndex
 90
       18
102
RTVSPost2010Prop41ColorRGB
 90
        0
102
RTVSPost2010PropOp41
 70
     1
102
RTVSPost2010Prop42
 90
       50
102
RTVSPost2010PropOp42
 70
     1
102
RTVSPost2010Prop43
 90
        3
102
RTVSPost2010PropOp43
 70
     1
102
RTVSPost2010Prop44ColorIndex
 90
        5
102
RTVSPost2010Prop44ColorRGB
 90
      255
102
RTVSPost2010PropOp44
 70
     1
102
RTVSPost2010Prop45
280
     0
102
RTVSPost2010PropOp45
 70
     1
102
RTVSPost2010Prop46
 90
       50
102
RTVSPost2010PropOp46
 70
     1
102
RTVSPost2010Prop47
 90
       50
102
RTVSPost2010PropOp47
 70
     1
102
RTVSPost2010Prop48
 90
       50
102
RTVSPost2010PropOp48
 70
     1
102
RTVSPost2010Prop49
280
     0
102
RTVSPost2010PropOp49
 70
     1
102
RTVSPost2010Prop50
 90
       50
102
RTVSPost2010PropOp50
 70
     1
102
RTVSPost2010Prop51ColorIndex
 90
      256
102
RTVSPost2010Prop51ColorRGB
 90
-16777216
102
RTVSPost2010PropOp51
 70
     0
102
RTVSPost2010Prop52
140
1.0
102
RTVSPost2010PropOp52
 70
     0
102
RTVSPost2010Prop53
 90
        2
102
RTVSPost2010PropOp53
 70
     1
102
RTVSPost2010Prop54
  1
strokes_ogs.tif
102
RTVSPost2010PropOp54
 70
     1
102
RTVSPost2010Prop55
280
     0
102
RTVSPost2010PropOp55
 70
     1
102
RTVSPost2010Prop56
140
1.0
102
RTVSPost2010PropOp56
 70
     1
102
RTVSPost2010Prop57
140
1.0
102
RTVSPost2010PropOp57
 70
     1
102
RTVSPropertyOp0
 70
     1
102
RTVSPropertyOp1
 70
     1
102
RTVSPropertyOp2
 70
     1
102
RTVSPropertyOp3
 70
     1
102
RTVSPropertyOp4
 70
     1
102
RTVSPropertyOp5
 70
     1
102
RTVSPropertyOp6
 70
     1
102
RTVSPropertyOp7
 70
     1
102
RTVSPropertyOp8
 70
     1
102
RTVSPropertyOp9
 70
     1
102
RTVSPropertyOp10
 70
     1
102
RTVSPropertyOp11
 70
     1
102
RTVSPropertyOp12
 70
     1
102
RTVSPropertyOp13
 70
     1
102
RTVSPropertyOp14
 70
     1
102
RTVSPropertyOp15
 70
     1
102
RTVSPropertyOp16
 70
     1
102
RTVSPropertyOp17
 70
     1
102
RTVSPropertyOp18
 70
     1
102
RTVSPropertyOp19
 70
     1
102
RTVSPropertyOp20
 70
     1
102
RTVSPropertyOp21
 70
     1
102
RTVSPropertyOp22
 70
     1
102
RTVSPropertyOp23
 70
     1
102
RTVSPropertyOp24
 70
     1
102
RTVSPropertyOp25
 70
     1
102
RTVSPropertyOp26
 70
     1
102
RTVSPropertyOp27
 70
     1
102
RTVSPropertyOp28
 70
     1
102
RTVSPropertyOp29
 70
     1
102
RTVSPropertyOp30
 70
     1
102
RTVSPropertyOp31
 70
     1
102
RTVSPropertyOp32
 70
     1
102
RTVSPropertyOp33
 70
     1
102
RTVSPropertyOp34
 70
     1
102
RTVSPropertyOp35
 70
     1
102
RTVSPropertyOp36
 70
     1
102
RTVSPropertyOp37
 70
     1
102
RTVSPropertyOp38
 70
     1
102
RTVSPropertyOp39
 70
     1
102
RTVSPropertyOp40
 70
     1
102
RTVSPropertyOp41
 70
     1
102
RTVSPropertyOp42
 70
     1
102
RTVSPropertyOp43
 70
     1
102
RTVSPropertyOp44
 70
     1
102
RTVSPropertyOp45
 70
     1
102
RTVSPropertyOp46
 70
     1
102
RTVSPropertyOp47
 70
     1
102
RTVSPropertyOp48
 70
     1
102
RTVSPropertyOp49
 70
     1
102
RTVSPropertyOp50
 70
     1
102
RTVSPropertyOp51
 70
     0
102
RTVSPropertyOp52
 70
     0
102
RTVSPropertyOp53
 70
     1
102
RTVSPropertyOp54
 70
     1
102
RTVSPropertyOp55
 70
     1
102
RTVSPropertyOp56
 70
     1
102
RTVSPropertyOp57
 70
     1
102
RTVSPropertyOp58
 70
     1
102
RTVSPropertyOp59
 70
     1
102
RTVSPropertyOp60
 70
     1
102
RTVSPropertyOp61
 70
     1
102
RTVSPropertyOp62
 70
     1
  0
XRECORD
  5
6467
102
{ACAD_REACTORS
330
6466
102
}
330
6466
100
AcDbXrecord
280
     1
102
RTVSPost2010Prop28
280
     0
102
RTVSPost2010PropOp28
 70
     1
102
RTVSPost2010Prop29
280
     1
102
RTVSPost2010PropOp29
 70
     1
102
RTVSPost2010Prop30
280
     1
102
RTVSPost2010PropOp30
 70
     1
102
RTVSPost2010Prop31
280
     0
102
RTVSPost2010PropOp31
 70
     1
102
RTVSPost2010Prop32
280
     0
102
RTVSPost2010PropOp32
 70
     1
102
RTVSPost2010Prop33
280
     0
102
RTVSPost2010PropOp33
 70
     1
102
RTVSPost2010Prop34
280
     0
102
RTVSPost2010PropOp34
 70
     1
102
RTVSPost2010Prop35
280
     0
102
RTVSPost2010PropOp35
 70
     1
102
RTVSPost2010Prop36
280
     0
102
RTVSPost2010PropOp36
 70
     1
102
RTVSPost2010Prop37
 90
       50
102
RTVSPost2010PropOp37
 70
     1
102
RTVSPost2010Prop38
140
0.0
102
RTVSPost2010PropOp38
 70
     1
102
RTVSPost2010Prop39
140
1.0
102
RTVSPost2010PropOp39
 70
     1
102
RTVSPost2010Prop40
 90
        0
102
RTVSPost2010PropOp40
 70
     1
102
RTVSPost2010Prop41ColorIndex
 90
       18
102
RTVSPost2010Prop41ColorRGB
 90
        0
102
RTVSPost2010PropOp41
 70
     1
102
RTVSPost2010Prop42
 90
       50
102
RTVSPost2010PropOp42
 70
     1
102
RTVSPost2010Prop43
 90
        3
102
RTVSPost2010PropOp43
 70
     1
102
RTVSPost2010Prop44ColorIndex
 90
        5
102
RTVSPost2010Prop44ColorRGB
 90
      255
102
RTVSPost2010PropOp44
 70
     1
102
RTVSPost2010Prop45
280
     0
102
RTVSPost2010PropOp45
 70
     1
102
RTVSPost2010Prop46
 90
       50
102
RTVSPost2010PropOp46
 70
     1
102
RTVSPost2010Prop47
 90
       50
102
RTVSPost2010PropOp47
 70
     1
102
RTVSPost2010Prop48
 90
       50
102
RTVSPost2010PropOp48
 70
     1
102
RTVSPost2010Prop49
280
     0
102
RTVSPost2010PropOp49
 70
     1
102
RTVSPost2010Prop50
 90
       50
102
RTVSPost2010PropOp50
 70
     1
102
RTVSPost2010Prop51ColorIndex
 90
      256
102
RTVSPost2010Prop51ColorRGB
 90
-16777216
102
RTVSPost2010PropOp51
 70
     0
102
RTVSPost2010Prop52
140
1.0
102
RTVSPost2010PropOp52
 70
     0
102
RTVSPost2010Prop53
 90
        2
102
RTVSPost2010PropOp53
 70
     1
102
RTVSPost2010Prop54
  1
strokes_ogs.tif
102
RTVSPost2010PropOp54
 70
     1
102
RTVSPost2010Prop55
280
     0
102
RTVSPost2010PropOp55
 70
     1
102
RTVSPost2010Prop56
140
1.0
102
RTVSPost2010PropOp56
 70
     1
102
RTVSPost2010Prop57
140
1.0
102
RTVSPost2010PropOp57
 70
     1
102
RTVSPropertyOp0
 70
     1
102
RTVSPropertyOp1
 70
     1
102
RTVSPropertyOp2
 70
     1
102
RTVSPropertyOp3
 70
     1
102
RTVSPropertyOp4
 70
     1
102
RTVSPropertyOp5
 70
     1
102
RTVSPropertyOp6
 70
     1
102
RTVSPropertyOp7
 70
     1
102
RTVSPropertyOp8
 70
     1
102
RTVSPropertyOp9
 70
     1
102
RTVSPropertyOp10
 70
     1
102
RTVSPropertyOp11
 70
     1
102
RTVSPropertyOp12
 70
     1
102
RTVSPropertyOp13
 70
     1
102
RTVSPropertyOp14
 70
     1
102
RTVSPropertyOp15
 70
     1
102
RTVSPropertyOp16
 70
     1
102
RTVSPropertyOp17
 70
     1
102
RTVSPropertyOp18
 70
     1
102
RTVSPropertyOp19
 70
     1
102
RTVSPropertyOp20
 70
     1
102
RTVSPropertyOp21
 70
     1
102
RTVSPropertyOp22
 70
     1
102
RTVSPropertyOp23
 70
     1
102
RTVSPropertyOp24
 70
     1
102
RTVSPropertyOp25
 70
     1
102
RTVSPropertyOp26
 70
     1
102
RTVSPropertyOp27
 70
     1
102
RTVSPropertyOp28
 70
     1
102
RTVSPropertyOp29
 70
     1
102
RTVSPropertyOp30
 70
     1
102
RTVSPropertyOp31
 70
     1
102
RTVSPropertyOp32
 70
     1
102
RTVSPropertyOp33
 70
     1
102
RTVSPropertyOp34
 70
     1
102
RTVSPropertyOp35
 70
     1
102
RTVSPropertyOp36
 70
     1
102
RTVSPropertyOp37
 70
     1
102
RTVSPropertyOp38
 70
     1
102
RTVSPropertyOp39
 70
     1
102
RTVSPropertyOp40
 70
     1
102
RTVSPropertyOp41
 70
     1
102
RTVSPropertyOp42
 70
     1
102
RTVSPropertyOp43
 70
     1
102
RTVSPropertyOp44
 70
     1
102
RTVSPropertyOp45
 70
     1
102
RTVSPropertyOp46
 70
     1
102
RTVSPropertyOp47
 70
     1
102
RTVSPropertyOp48
 70
     1
102
RTVSPropertyOp49
 70
     1
102
RTVSPropertyOp50
 70
     1
102
RTVSPropertyOp51
 70
     0
102
RTVSPropertyOp52
 70
     0
102
RTVSPropertyOp53
 70
     1
102
RTVSPropertyOp54
 70
     1
102
RTVSPropertyOp55
 70
     1
102
RTVSPropertyOp56
 70
     1
102
RTVSPropertyOp57
 70
     1
102
RTVSPropertyOp58
 70
     1
102
RTVSPropertyOp59
 70
     1
102
RTVSPropertyOp60
 70
     1
102
RTVSPropertyOp61
 70
     1
102
RTVSPropertyOp62
 70
     1
  0
XRECORD
  5
6459
102
{ACAD_REACTORS
330
6458
102
}
330
6458
100
AcDbXrecord
280
     1
102
RTVSPost2010Prop28
280
     0
102
RTVSPost2010PropOp28
 70
     1
102
RTVSPost2010Prop29
280
     1
102
RTVSPost2010PropOp29
 70
     1
102
RTVSPost2010Prop30
280
     1
102
RTVSPost2010PropOp30
 70
     1
102
RTVSPost2010Prop31
280
     0
102
RTVSPost2010PropOp31
 70
     1
102
RTVSPost2010Prop32
280
     0
102
RTVSPost2010PropOp32
 70
     1
102
RTVSPost2010Prop33
280
     0
102
RTVSPost2010PropOp33
 70
     1
102
RTVSPost2010Prop34
280
     0
102
RTVSPost2010PropOp34
 70
     1
102
RTVSPost2010Prop35
280
     0
102
RTVSPost2010PropOp35
 70
     1
102
RTVSPost2010Prop36
280
     0
102
RTVSPost2010PropOp36
 70
     1
102
RTVSPost2010Prop37
 90
       50
102
RTVSPost2010PropOp37
 70
     1
102
RTVSPost2010Prop38
140
0.0
102
RTVSPost2010PropOp38
 70
     1
102
RTVSPost2010Prop39
140
1.0
102
RTVSPost2010PropOp39
 70
     1
102
RTVSPost2010Prop40
 90
        0
102
RTVSPost2010PropOp40
 70
     1
102
RTVSPost2010Prop41ColorIndex
 90
       18
102
RTVSPost2010Prop41ColorRGB
 90
        0
102
RTVSPost2010PropOp41
 70
     1
102
RTVSPost2010Prop42
 90
       50
102
RTVSPost2010PropOp42
 70
     1
102
RTVSPost2010Prop43
 90
        3
102
RTVSPost2010PropOp43
 70
     1
102
RTVSPost2010Prop44ColorIndex
 90
        5
102
RTVSPost2010Prop44ColorRGB
 90
      255
102
RTVSPost2010PropOp44
 70
     1
102
RTVSPost2010Prop45
280
     0
102
RTVSPost2010PropOp45
 70
     1
102
RTVSPost2010Prop46
 90
       50
102
RTVSPost2010PropOp46
 70
     1
102
RTVSPost2010Prop47
 90
       50
102
RTVSPost2010PropOp47
 70
     1
102
RTVSPost2010Prop48
 90
       50
102
RTVSPost2010PropOp48
 70
     1
102
RTVSPost2010Prop49
280
     0
102
RTVSPost2010PropOp49
 70
     1
102
RTVSPost2010Prop50
 90
       50
102
RTVSPost2010PropOp50
 70
     1
102
RTVSPost2010Prop51ColorIndex
 90
      256
102
RTVSPost2010Prop51ColorRGB
 90
-16777216
102
RTVSPost2010PropOp51
 70
     0
102
RTVSPost2010Prop52
140
1.0
102
RTVSPost2010PropOp52
 70
     0
102
RTVSPost2010Prop53
 90
        2
102
RTVSPost2010PropOp53
 70
     1
102
RTVSPost2010Prop54
  1
strokes_ogs.tif
102
RTVSPost2010PropOp54
 70
     1
102
RTVSPost2010Prop55
280
     0
102
RTVSPost2010PropOp55
 70
     1
102
RTVSPost2010Prop56
140
1.0
102
RTVSPost2010PropOp56
 70
     1
102
RTVSPost2010Prop57
140
1.0
102
RTVSPost2010PropOp57
 70
     1
102
RTVSPropertyOp0
 70
     1
102
RTVSPropertyOp1
 70
     1
102
RTVSPropertyOp2
 70
     1
102
RTVSPropertyOp3
 70
     1
102
RTVSPropertyOp4
 70
     1
102
RTVSPropertyOp5
 70
     1
102
RTVSPropertyOp6
 70
     1
102
RTVSPropertyOp7
 70
     1
102
RTVSPropertyOp8
 70
     1
102
RTVSPropertyOp9
 70
     1
102
RTVSPropertyOp10
 70
     1
102
RTVSPropertyOp11
 70
     1
102
RTVSPropertyOp12
 70
     1
102
RTVSPropertyOp13
 70
     1
102
RTVSPropertyOp14
 70
     1
102
RTVSPropertyOp15
 70
     1
102
RTVSPropertyOp16
 70
     1
102
RTVSPropertyOp17
 70
     1
102
RTVSPropertyOp18
 70
     1
102
RTVSPropertyOp19
 70
     1
102
RTVSPropertyOp20
 70
     1
102
RTVSPropertyOp21
 70
     1
102
RTVSPropertyOp22
 70
     1
102
RTVSPropertyOp23
 70
     1
102
RTVSPropertyOp24
 70
     1
102
RTVSPropertyOp25
 70
     1
102
RTVSPropertyOp26
 70
     1
102
RTVSPropertyOp27
 70
     1
102
RTVSPropertyOp28
 70
     1
102
RTVSPropertyOp29
 70
     1
102
RTVSPropertyOp30
 70
     1
102
RTVSPropertyOp31
 70
     1
102
RTVSPropertyOp32
 70
     1
102
RTVSPropertyOp33
 70
     1
102
RTVSPropertyOp34
 70
     1
102
RTVSPropertyOp35
 70
     1
102
RTVSPropertyOp36
 70
     1
102
RTVSPropertyOp37
 70
     1
102
RTVSPropertyOp38
 70
     1
102
RTVSPropertyOp39
 70
     1
102
RTVSPropertyOp40
 70
     1
102
RTVSPropertyOp41
 70
     1
102
RTVSPropertyOp42
 70
     1
102
RTVSPropertyOp43
 70
     1
102
RTVSPropertyOp44
 70
     1
102
RTVSPropertyOp45
 70
     1
102
RTVSPropertyOp46
 70
     1
102
RTVSPropertyOp47
 70
     1
102
RTVSPropertyOp48
 70
     1
102
RTVSPropertyOp49
 70
     1
102
RTVSPropertyOp50
 70
     1
102
RTVSPropertyOp51
 70
     0
102
RTVSPropertyOp52
 70
     0
102
RTVSPropertyOp53
 70
     1
102
RTVSPropertyOp54
 70
     1
102
RTVSPropertyOp55
 70
     1
102
RTVSPropertyOp56
 70
     1
102
RTVSPropertyOp57
 70
     1
102
RTVSPropertyOp58
 70
     1
102
RTVSPropertyOp59
 70
     1
102
RTVSPropertyOp60
 70
     1
102
RTVSPropertyOp61
 70
     1
102
RTVSPropertyOp62
 70
     1
  0
XRECORD
  5
645D
102
{ACAD_REACTORS
330
645C
102
}
330
645C
100
AcDbXrecord
280
     1
102
RTVSPost2010Prop28
280
     0
102
RTVSPost2010PropOp28
 70
     1
102
RTVSPost2010Prop29
280
     1
102
RTVSPost2010PropOp29
 70
     1
102
RTVSPost2010Prop30
280
     1
102
RTVSPost2010PropOp30
 70
     1
102
RTVSPost2010Prop31
280
     0
102
RTVSPost2010PropOp31
 70
     1
102
RTVSPost2010Prop32
280
     0
102
RTVSPost2010PropOp32
 70
     1
102
RTVSPost2010Prop33
280
     0
102
RTVSPost2010PropOp33
 70
     1
102
RTVSPost2010Prop34
280
     0
102
RTVSPost2010PropOp34
 70
     1
102
RTVSPost2010Prop35
280
     0
102
RTVSPost2010PropOp35
 70
     1
102
RTVSPost2010Prop36
280
     0
102
RTVSPost2010PropOp36
 70
     1
102
RTVSPost2010Prop37
 90
       50
102
RTVSPost2010PropOp37
 70
     1
102
RTVSPost2010Prop38
140
0.0
102
RTVSPost2010PropOp38
 70
     1
102
RTVSPost2010Prop39
140
1.0
102
RTVSPost2010PropOp39
 70
     1
102
RTVSPost2010Prop40
 90
        0
102
RTVSPost2010PropOp40
 70
     1
102
RTVSPost2010Prop41ColorIndex
 90
       18
102
RTVSPost2010Prop41ColorRGB
 90
        0
102
RTVSPost2010PropOp41
 70
     1
102
RTVSPost2010Prop42
 90
       50
102
RTVSPost2010PropOp42
 70
     1
102
RTVSPost2010Prop43
 90
        3
102
RTVSPost2010PropOp43
 70
     1
102
RTVSPost2010Prop44ColorIndex
 90
        5
102
RTVSPost2010Prop44ColorRGB
 90
      255
102
RTVSPost2010PropOp44
 70
     1
102
RTVSPost2010Prop45
280
     0
102
RTVSPost2010PropOp45
 70
     1
102
RTVSPost2010Prop46
 90
       50
102
RTVSPost2010PropOp46
 70
     1
102
RTVSPost2010Prop47
 90
       50
102
RTVSPost2010PropOp47
 70
     1
102
RTVSPost2010Prop48
 90
       50
102
RTVSPost2010PropOp48
 70
     1
102
RTVSPost2010Prop49
280
     0
102
RTVSPost2010PropOp49
 70
     1
102
RTVSPost2010Prop50
 90
       50
102
RTVSPost2010PropOp50
 70
     1
102
RTVSPost2010Prop51ColorIndex
 90
      256
102
RTVSPost2010Prop51ColorRGB
 90
-16777216
102
RTVSPost2010PropOp51
 70
     0
102
RTVSPost2010Prop52
140
1.0
102
RTVSPost2010PropOp52
 70
     0
102
RTVSPost2010Prop53
 90
        2
102
RTVSPost2010PropOp53
 70
     1
102
RTVSPost2010Prop54
  1
strokes_ogs.tif
102
RTVSPost2010PropOp54
 70
     1
102
RTVSPost2010Prop55
280
     0
102
RTVSPost2010PropOp55
 70
     1
102
RTVSPost2010Prop56
140
1.0
102
RTVSPost2010PropOp56
 70
     1
102
RTVSPost2010Prop57
140
1.0
102
RTVSPost2010PropOp57
 70
     1
102
RTVSPropertyOp0
 70
     1
102
RTVSPropertyOp1
 70
     1
102
RTVSPropertyOp2
 70
     1
102
RTVSPropertyOp3
 70
     1
102
RTVSPropertyOp4
 70
     1
102
RTVSPropertyOp5
 70
     1
102
RTVSPropertyOp6
 70
     1
102
RTVSPropertyOp7
 70
     1
102
RTVSPropertyOp8
 70
     1
102
RTVSPropertyOp9
 70
     1
102
RTVSPropertyOp10
 70
     1
102
RTVSPropertyOp11
 70
     1
102
RTVSPropertyOp12
 70
     1
102
RTVSPropertyOp13
 70
     1
102
RTVSPropertyOp14
 70
     1
102
RTVSPropertyOp15
 70
     1
102
RTVSPropertyOp16
 70
     1
102
RTVSPropertyOp17
 70
     1
102
RTVSPropertyOp18
 70
     1
102
RTVSPropertyOp19
 70
     1
102
RTVSPropertyOp20
 70
     1
102
RTVSPropertyOp21
 70
     1
102
RTVSPropertyOp22
 70
     1
102
RTVSPropertyOp23
 70
     1
102
RTVSPropertyOp24
 70
     1
102
RTVSPropertyOp25
 70
     1
102
RTVSPropertyOp26
 70
     1
102
RTVSPropertyOp27
 70
     1
102
RTVSPropertyOp28
 70
     1
102
RTVSPropertyOp29
 70
     1
102
RTVSPropertyOp30
 70
     1
102
RTVSPropertyOp31
 70
     1
102
RTVSPropertyOp32
 70
     1
102
RTVSPropertyOp33
 70
     1
102
RTVSPropertyOp34
 70
     1
102
RTVSPropertyOp35
 70
     1
102
RTVSPropertyOp36
 70
     1
102
RTVSPropertyOp37
 70
     1
102
RTVSPropertyOp38
 70
     1
102
RTVSPropertyOp39
 70
     1
102
RTVSPropertyOp40
 70
     1
102
RTVSPropertyOp41
 70
     1
102
RTVSPropertyOp42
 70
     1
102
RTVSPropertyOp43
 70
     1
102
RTVSPropertyOp44
 70
     1
102
RTVSPropertyOp45
 70
     1
102
RTVSPropertyOp46
 70
     1
102
RTVSPropertyOp47
 70
     1
102
RTVSPropertyOp48
 70
     1
102
RTVSPropertyOp49
 70
     1
102
RTVSPropertyOp50
 70
     1
102
RTVSPropertyOp51
 70
     0
102
RTVSPropertyOp52
 70
     0
102
RTVSPropertyOp53
 70
     1
102
RTVSPropertyOp54
 70
     1
102
RTVSPropertyOp55
 70
     1
102
RTVSPropertyOp56
 70
     1
102
RTVSPropertyOp57
 70
     1
102
RTVSPropertyOp58
 70
     1
102
RTVSPropertyOp59
 70
     1
102
RTVSPropertyOp60
 70
     1
102
RTVSPropertyOp61
 70
     1
102
RTVSPropertyOp62
 70
     1
  0
XRECORD
  5
6477
102
{ACAD_REACTORS
330
6476
102
}
330
6476
100
AcDbXrecord
280
     1
102
RTVSPost2010Prop28
280
     0
102
RTVSPost2010PropOp28
 70
     0
102
RTVSPost2010Prop29
280
     1
102
RTVSPost2010PropOp29
 70
     0
102
RTVSPost2010Prop30
280
     1
102
RTVSPost2010PropOp30
 70
     0
102
RTVSPost2010Prop31
280
     0
102
RTVSPost2010PropOp31
 70
     0
102
RTVSPost2010Prop32
280
     0
102
RTVSPost2010PropOp32
 70
     0
102
RTVSPost2010Prop33
280
     0
102
RTVSPost2010PropOp33
 70
     0
102
RTVSPost2010Prop34
280
     0
102
RTVSPost2010PropOp34
 70
     0
102
RTVSPost2010Prop35
280
     0
102
RTVSPost2010PropOp35
 70
     0
102
RTVSPost2010Prop36
280
     0
102
RTVSPost2010PropOp36
 70
     0
102
RTVSPost2010Prop37
 90
       50
102
RTVSPost2010PropOp37
 70
     0
102
RTVSPost2010Prop38
140
0.0
102
RTVSPost2010PropOp38
 70
     0
102
RTVSPost2010Prop39
140
1.0
102
RTVSPost2010PropOp39
 70
     0
102
RTVSPost2010Prop40
 90
        0
102
RTVSPost2010PropOp40
 70
     0
102
RTVSPost2010Prop41ColorIndex
 90
       18
102
RTVSPost2010Prop41ColorRGB
 90
        0
102
RTVSPost2010PropOp41
 70
     0
102
RTVSPost2010Prop42
 90
       50
102
RTVSPost2010PropOp42
 70
     0
102
RTVSPost2010Prop43
 90
        3
102
RTVSPost2010PropOp43
 70
     0
102
RTVSPost2010Prop44ColorIndex
 90
        5
102
RTVSPost2010Prop44ColorRGB
 90
      255
102
RTVSPost2010PropOp44
 70
     0
102
RTVSPost2010Prop45
280
     0
102
RTVSPost2010PropOp45
 70
     0
102
RTVSPost2010Prop46
 90
       50
102
RTVSPost2010PropOp46
 70
     0
102
RTVSPost2010Prop47
 90
       50
102
RTVSPost2010PropOp47
 70
     0
102
RTVSPost2010Prop48
 90
       50
102
RTVSPost2010PropOp48
 70
     0
102
RTVSPost2010Prop49
280
     0
102
RTVSPost2010PropOp49
 70
     0
102
RTVSPost2010Prop50
 90
       50
102
RTVSPost2010PropOp50
 70
     0
102
RTVSPost2010Prop51ColorIndex
 90
      256
102
RTVSPost2010Prop51ColorRGB
 90
-16777216
102
RTVSPost2010PropOp51
 70
     0
102
RTVSPost2010Prop52
140
1.0
102
RTVSPost2010PropOp52
 70
     0
102
RTVSPost2010Prop53
 90
        2
102
RTVSPost2010PropOp53
 70
     0
102
RTVSPost2010Prop54
  1
strokes_ogs.tif
102
RTVSPost2010PropOp54
 70
     0
102
RTVSPost2010Prop55
280
     0
102
RTVSPost2010PropOp55
 70
     0
102
RTVSPost2010Prop56
140
1.0
102
RTVSPost2010PropOp56
 70
     0
102
RTVSPost2010Prop57
140
1.0
102
RTVSPost2010PropOp57
 70
     0
102
RTVSPropertyOp0
 70
     0
102
RTVSPropertyOp1
 70
     0
102
RTVSPropertyOp2
 70
     0
102
RTVSPropertyOp3
 70
     0
102
RTVSPropertyOp4
 70
     0
102
RTVSPropertyOp5
 70
     0
102
RTVSPropertyOp6
 70
     0
102
RTVSPropertyOp7
 70
     0
102
RTVSPropertyOp8
 70
     0
102
RTVSPropertyOp9
 70
     0
102
RTVSPropertyOp10
 70
     0
102
RTVSPropertyOp11
 70
     0
102
RTVSPropertyOp12
 70
     0
102
RTVSPropertyOp13
 70
     0
102
RTVSPropertyOp14
 70
     2
102
RTVSPropertyOp15
 70
     0
102
RTVSPropertyOp16
 70
     0
102
RTVSPropertyOp17
 70
     0
102
RTVSPropertyOp18
 70
     0
102
RTVSPropertyOp19
 70
     0
102
RTVSPropertyOp20
 70
     0
102
RTVSPropertyOp21
 70
     0
102
RTVSPropertyOp22
 70
     0
102
RTVSPropertyOp23
 70
     0
102
RTVSPropertyOp24
 70
     0
102
RTVSPropertyOp25
 70
     0
102
RTVSPropertyOp26
 70
     0
102
RTVSPropertyOp27
 70
     0
102
RTVSPropertyOp28
 70
     0
102
RTVSPropertyOp29
 70
     0
102
RTVSPropertyOp30
 70
     0
102
RTVSPropertyOp31
 70
     0
102
RTVSPropertyOp32
 70
     0
102
RTVSPropertyOp33
 70
     0
102
RTVSPropertyOp34
 70
     0
102
RTVSPropertyOp35
 70
     0
102
RTVSPropertyOp36
 70
     0
102
RTVSPropertyOp37
 70
     0
102
RTVSPropertyOp38
 70
     0
102
RTVSPropertyOp39
 70
     0
102
RTVSPropertyOp40
 70
     0
102
RTVSPropertyOp41
 70
     0
102
RTVSPropertyOp42
 70
     0
102
RTVSPropertyOp43
 70
     0
102
RTVSPropertyOp44
 70
     0
102
RTVSPropertyOp45
 70
     0
102
RTVSPropertyOp46
 70
     0
102
RTVSPropertyOp47
 70
     0
102
RTVSPropertyOp48
 70
     0
102
RTVSPropertyOp49
 70
     0
102
RTVSPropertyOp50
 70
     0
102
RTVSPropertyOp51
 70
     0
102
RTVSPropertyOp52
 70
     0
102
RTVSPropertyOp53
 70
     0
102
RTVSPropertyOp54
 70
     0
102
RTVSPropertyOp55
 70
     0
102
RTVSPropertyOp56
 70
     0
102
RTVSPropertyOp57
 70
     0
102
RTVSPropertyOp58
 70
     0
102
RTVSPropertyOp59
 70
     0
102
RTVSPropertyOp60
 70
     0
102
RTVSPropertyOp61
 70
     0
102
RTVSPropertyOp62
 70
     0
  0
XRECORD
  5
6465
102
{ACAD_REACTORS
330
6464
102
}
330
6464
100
AcDbXrecord
280
     1
102
RTVSPost2010Prop28
280
     0
102
RTVSPost2010PropOp28
 70
     1
102
RTVSPost2010Prop29
280
     1
102
RTVSPost2010PropOp29
 70
     1
102
RTVSPost2010Prop30
280
     1
102
RTVSPost2010PropOp30
 70
     1
102
RTVSPost2010Prop31
280
     0
102
RTVSPost2010PropOp31
 70
     1
102
RTVSPost2010Prop32
280
     0
102
RTVSPost2010PropOp32
 70
     1
102
RTVSPost2010Prop33
280
     0
102
RTVSPost2010PropOp33
 70
     1
102
RTVSPost2010Prop34
280
     0
102
RTVSPost2010PropOp34
 70
     1
102
RTVSPost2010Prop35
280
     0
102
RTVSPost2010PropOp35
 70
     1
102
RTVSPost2010Prop36
280
     0
102
RTVSPost2010PropOp36
 70
     1
102
RTVSPost2010Prop37
 90
       50
102
RTVSPost2010PropOp37
 70
     1
102
RTVSPost2010Prop38
140
0.0
102
RTVSPost2010PropOp38
 70
     1
102
RTVSPost2010Prop39
140
1.0
102
RTVSPost2010PropOp39
 70
     1
102
RTVSPost2010Prop40
 90
        0
102
RTVSPost2010PropOp40
 70
     1
102
RTVSPost2010Prop41ColorIndex
 90
       18
102
RTVSPost2010Prop41ColorRGB
 90
        0
102
RTVSPost2010PropOp41
 70
     1
102
RTVSPost2010Prop42
 90
       50
102
RTVSPost2010PropOp42
 70
     1
102
RTVSPost2010Prop43
 90
        3
102
RTVSPost2010PropOp43
 70
     1
102
RTVSPost2010Prop44ColorIndex
 90
        5
102
RTVSPost2010Prop44ColorRGB
 90
      255
102
RTVSPost2010PropOp44
 70
     1
102
RTVSPost2010Prop45
280
     0
102
RTVSPost2010PropOp45
 70
     1
102
RTVSPost2010Prop46
 90
       50
102
RTVSPost2010PropOp46
 70
     1
102
RTVSPost2010Prop47
 90
       50
102
RTVSPost2010PropOp47
 70
     1
102
RTVSPost2010Prop48
 90
       50
102
RTVSPost2010PropOp48
 70
     1
102
RTVSPost2010Prop49
280
     0
102
RTVSPost2010PropOp49
 70
     1
102
RTVSPost2010Prop50
 90
       50
102
RTVSPost2010PropOp50
 70
     1
102
RTVSPost2010Prop51ColorIndex
 90
      256
102
RTVSPost2010Prop51ColorRGB
 90
-16777216
102
RTVSPost2010PropOp51
 70
     0
102
RTVSPost2010Prop52
140
1.0
102
RTVSPost2010PropOp52
 70
     0
102
RTVSPost2010Prop53
 90
        2
102
RTVSPost2010PropOp53
 70
     1
102
RTVSPost2010Prop54
  1
strokes_ogs.tif
102
RTVSPost2010PropOp54
 70
     1
102
RTVSPost2010Prop55
280
     0
102
RTVSPost2010PropOp55
 70
     1
102
RTVSPost2010Prop56
140
1.0
102
RTVSPost2010PropOp56
 70
     1
102
RTVSPost2010Prop57
140
1.0
102
RTVSPost2010PropOp57
 70
     1
102
RTVSPropertyOp0
 70
     1
102
RTVSPropertyOp1
 70
     1
102
RTVSPropertyOp2
 70
     1
102
RTVSPropertyOp3
 70
     1
102
RTVSPropertyOp4
 70
     1
102
RTVSPropertyOp5
 70
     1
102
RTVSPropertyOp6
 70
     1
102
RTVSPropertyOp7
 70
     1
102
RTVSPropertyOp8
 70
     1
102
RTVSPropertyOp9
 70
     1
102
RTVSPropertyOp10
 70
     1
102
RTVSPropertyOp11
 70
     1
102
RTVSPropertyOp12
 70
     1
102
RTVSPropertyOp13
 70
     1
102
RTVSPropertyOp14
 70
     1
102
RTVSPropertyOp15
 70
     1
102
RTVSPropertyOp16
 70
     1
102
RTVSPropertyOp17
 70
     1
102
RTVSPropertyOp18
 70
     1
102
RTVSPropertyOp19
 70
     1
102
RTVSPropertyOp20
 70
     1
102
RTVSPropertyOp21
 70
     1
102
RTVSPropertyOp22
 70
     1
102
RTVSPropertyOp23
 70
     1
102
RTVSPropertyOp24
 70
     1
102
RTVSPropertyOp25
 70
     1
102
RTVSPropertyOp26
 70
     1
102
RTVSPropertyOp27
 70
     1
102
RTVSPropertyOp28
 70
     1
102
RTVSPropertyOp29
 70
     1
102
RTVSPropertyOp30
 70
     1
102
RTVSPropertyOp31
 70
     1
102
RTVSPropertyOp32
 70
     1
102
RTVSPropertyOp33
 70
     1
102
RTVSPropertyOp34
 70
     1
102
RTVSPropertyOp35
 70
     1
102
RTVSPropertyOp36
 70
     1
102
RTVSPropertyOp37
 70
     1
102
RTVSPropertyOp38
 70
     1
102
RTVSPropertyOp39
 70
     1
102
RTVSPropertyOp40
 70
     1
102
RTVSPropertyOp41
 70
     1
102
RTVSPropertyOp42
 70
     1
102
RTVSPropertyOp43
 70
     1
102
RTVSPropertyOp44
 70
     1
102
RTVSPropertyOp45
 70
     1
102
RTVSPropertyOp46
 70
     1
102
RTVSPropertyOp47
 70
     1
102
RTVSPropertyOp48
 70
     1
102
RTVSPropertyOp49
 70
     1
102
RTVSPropertyOp50
 70
     1
102
RTVSPropertyOp51
 70
     0
102
RTVSPropertyOp52
 70
     0
102
RTVSPropertyOp53
 70
     1
102
RTVSPropertyOp54
 70
     1
102
RTVSPropertyOp55
 70
     1
102
RTVSPropertyOp56
 70
     1
102
RTVSPropertyOp57
 70
     1
102
RTVSPropertyOp58
 70
     1
102
RTVSPropertyOp59
 70
     1
102
RTVSPropertyOp60
 70
     1
102
RTVSPropertyOp61
 70
     1
102
RTVSPropertyOp62
 70
     1
  0
XRECORD
  5
6449
102
{ACAD_REACTORS
330
6448
102
}
330
6448
100
AcDbXrecord
280
     1
102
RTVSPost2010Prop28
280
     0
102
RTVSPost2010PropOp28
 70
     1
102
RTVSPost2010Prop29
280
     1
102
RTVSPost2010PropOp29
 70
     1
102
RTVSPost2010Prop30
280
     1
102
RTVSPost2010PropOp30
 70
     1
102
RTVSPost2010Prop31
280
     0
102
RTVSPost2010PropOp31
 70
     1
102
RTVSPost2010Prop32
280
     0
102
RTVSPost2010PropOp32
 70
     1
102
RTVSPost2010Prop33
280
     0
102
RTVSPost2010PropOp33
 70
     1
102
RTVSPost2010Prop34
280
     0
102
RTVSPost2010PropOp34
 70
     1
102
RTVSPost2010Prop35
280
     0
102
RTVSPost2010PropOp35
 70
     1
102
RTVSPost2010Prop36
280
     0
102
RTVSPost2010PropOp36
 70
     1
102
RTVSPost2010Prop37
 90
       50
102
RTVSPost2010PropOp37
 70
     1
102
RTVSPost2010Prop38
140
0.0
102
RTVSPost2010PropOp38
 70
     1
102
RTVSPost2010Prop39
140
1.0
102
RTVSPost2010PropOp39
 70
     1
102
RTVSPost2010Prop40
 90
        0
102
RTVSPost2010PropOp40
 70
     1
102
RTVSPost2010Prop41ColorIndex
 90
       18
102
RTVSPost2010Prop41ColorRGB
 90
        0
102
RTVSPost2010PropOp41
 70
     1
102
RTVSPost2010Prop42
 90
       50
102
RTVSPost2010PropOp42
 70
     1
102
RTVSPost2010Prop43
 90
        3
102
RTVSPost2010PropOp43
 70
     1
102
RTVSPost2010Prop44ColorIndex
 90
        5
102
RTVSPost2010Prop44ColorRGB
 90
      255
102
RTVSPost2010PropOp44
 70
     1
102
RTVSPost2010Prop45
280
     0
102
RTVSPost2010PropOp45
 70
     1
102
RTVSPost2010Prop46
 90
       50
102
RTVSPost2010PropOp46
 70
     1
102
RTVSPost2010Prop47
 90
       50
102
RTVSPost2010PropOp47
 70
     1
102
RTVSPost2010Prop48
 90
       50
102
RTVSPost2010PropOp48
 70
     1
102
RTVSPost2010Prop49
280
     0
102
RTVSPost2010PropOp49
 70
     1
102
RTVSPost2010Prop50
 90
       50
102
RTVSPost2010PropOp50
 70
     1
102
RTVSPost2010Prop51ColorIndex
 90
      256
102
RTVSPost2010Prop51ColorRGB
 90
-16777216
102
RTVSPost2010PropOp51
 70
     0
102
RTVSPost2010Prop52
140
1.0
102
RTVSPost2010PropOp52
 70
     0
102
RTVSPost2010Prop53
 90
        2
102
RTVSPost2010PropOp53
 70
     1
102
RTVSPost2010Prop54
  1
strokes_ogs.tif
102
RTVSPost2010PropOp54
 70
     1
102
RTVSPost2010Prop55
280
     0
102
RTVSPost2010PropOp55
 70
     1
102
RTVSPost2010Prop56
140
1.0
102
RTVSPost2010PropOp56
 70
     1
102
RTVSPost2010Prop57
140
1.0
102
RTVSPost2010PropOp57
 70
     1
102
RTVSPropertyOp0
 70
     1
102
RTVSPropertyOp1
 70
     1
102
RTVSPropertyOp2
 70
     1
102
RTVSPropertyOp3
 70
     1
102
RTVSPropertyOp4
 70
     1
102
RTVSPropertyOp5
 70
     1
102
RTVSPropertyOp6
 70
     1
102
RTVSPropertyOp7
 70
     1
102
RTVSPropertyOp8
 70
     1
102
RTVSPropertyOp9
 70
     1
102
RTVSPropertyOp10
 70
     1
102
RTVSPropertyOp11
 70
     1
102
RTVSPropertyOp12
 70
     1
102
RTVSPropertyOp13
 70
     1
102
RTVSPropertyOp14
 70
     1
102
RTVSPropertyOp15
 70
     1
102
RTVSPropertyOp16
 70
     1
102
RTVSPropertyOp17
 70
     1
102
RTVSPropertyOp18
 70
     1
102
RTVSPropertyOp19
 70
     1
102
RTVSPropertyOp20
 70
     1
102
RTVSPropertyOp21
 70
     1
102
RTVSPropertyOp22
 70
     1
102
RTVSPropertyOp23
 70
     1
102
RTVSPropertyOp24
 70
     1
102
RTVSPropertyOp25
 70
     1
102
RTVSPropertyOp26
 70
     1
102
RTVSPropertyOp27
 70
     1
102
RTVSPropertyOp28
 70
     1
102
RTVSPropertyOp29
 70
     1
102
RTVSPropertyOp30
 70
     1
102
RTVSPropertyOp31
 70
     1
102
RTVSPropertyOp32
 70
     1
102
RTVSPropertyOp33
 70
     1
102
RTVSPropertyOp34
 70
     1
102
RTVSPropertyOp35
 70
     1
102
RTVSPropertyOp36
 70
     1
102
RTVSPropertyOp37
 70
     1
102
RTVSPropertyOp38
 70
     1
102
RTVSPropertyOp39
 70
     1
102
RTVSPropertyOp40
 70
     1
102
RTVSPropertyOp41
 70
     1
102
RTVSPropertyOp42
 70
     1
102
RTVSPropertyOp43
 70
     1
102
RTVSPropertyOp44
 70
     1
102
RTVSPropertyOp45
 70
     1
102
RTVSPropertyOp46
 70
     1
102
RTVSPropertyOp47
 70
     1
102
RTVSPropertyOp48
 70
     1
102
RTVSPropertyOp49
 70
     1
102
RTVSPropertyOp50
 70
     1
102
RTVSPropertyOp51
 70
     0
102
RTVSPropertyOp52
 70
     0
102
RTVSPropertyOp53
 70
     1
102
RTVSPropertyOp54
 70
     1
102
RTVSPropertyOp55
 70
     1
102
RTVSPropertyOp56
 70
     1
102
RTVSPropertyOp57
 70
     1
102
RTVSPropertyOp58
 70
     1
102
RTVSPropertyOp59
 70
     1
102
RTVSPropertyOp60
 70
     1
102
RTVSPropertyOp61
 70
     1
102
RTVSPropertyOp62
 70
     1
  0
XRECORD
  5
644B
102
{ACAD_REACTORS
330
644A
102
}
330
644A
100
AcDbXrecord
280
     1
102
RTVSPost2010Prop28
280
     0
102
RTVSPost2010PropOp28
 70
     1
102
RTVSPost2010Prop29
280
     1
102
RTVSPost2010PropOp29
 70
     1
102
RTVSPost2010Prop30
280
     1
102
RTVSPost2010PropOp30
 70
     1
102
RTVSPost2010Prop31
280
     0
102
RTVSPost2010PropOp31
 70
     1
102
RTVSPost2010Prop32
280
     0
102
RTVSPost2010PropOp32
 70
     1
102
RTVSPost2010Prop33
280
     0
102
RTVSPost2010PropOp33
 70
     1
102
RTVSPost2010Prop34
280
     0
102
RTVSPost2010PropOp34
 70
     1
102
RTVSPost2010Prop35
280
     0
102
RTVSPost2010PropOp35
 70
     1
102
RTVSPost2010Prop36
280
     0
102
RTVSPost2010PropOp36
 70
     1
102
RTVSPost2010Prop37
 90
       50
102
RTVSPost2010PropOp37
 70
     1
102
RTVSPost2010Prop38
140
0.0
102
RTVSPost2010PropOp38
 70
     1
102
RTVSPost2010Prop39
140
1.0
102
RTVSPost2010PropOp39
 70
     1
102
RTVSPost2010Prop40
 90
        0
102
RTVSPost2010PropOp40
 70
     1
102
RTVSPost2010Prop41ColorIndex
 90
       18
102
RTVSPost2010Prop41ColorRGB
 90
        0
102
RTVSPost2010PropOp41
 70
     1
102
RTVSPost2010Prop42
 90
       50
102
RTVSPost2010PropOp42
 70
     1
102
RTVSPost2010Prop43
 90
        3
102
RTVSPost2010PropOp43
 70
     1
102
RTVSPost2010Prop44ColorIndex
 90
        5
102
RTVSPost2010Prop44ColorRGB
 90
      255
102
RTVSPost2010PropOp44
 70
     1
102
RTVSPost2010Prop45
280
     0
102
RTVSPost2010PropOp45
 70
     1
102
RTVSPost2010Prop46
 90
       50
102
RTVSPost2010PropOp46
 70
     1
102
RTVSPost2010Prop47
 90
       50
102
RTVSPost2010PropOp47
 70
     1
102
RTVSPost2010Prop48
 90
       50
102
RTVSPost2010PropOp48
 70
     1
102
RTVSPost2010Prop49
280
     0
102
RTVSPost2010PropOp49
 70
     1
102
RTVSPost2010Prop50
 90
       50
102
RTVSPost2010PropOp50
 70
     1
102
RTVSPost2010Prop51ColorIndex
 90
      256
102
RTVSPost2010Prop51ColorRGB
 90
-16777216
102
RTVSPost2010PropOp51
 70
     0
102
RTVSPost2010Prop52
140
1.0
102
RTVSPost2010PropOp52
 70
     0
102
RTVSPost2010Prop53
 90
        2
102
RTVSPost2010PropOp53
 70
     1
102
RTVSPost2010Prop54
  1
strokes_ogs.tif
102
RTVSPost2010PropOp54
 70
     1
102
RTVSPost2010Prop55
280
     0
102
RTVSPost2010PropOp55
 70
     1
102
RTVSPost2010Prop56
140
1.0
102
RTVSPost2010PropOp56
 70
     1
102
RTVSPost2010Prop57
140
1.0
102
RTVSPost2010PropOp57
 70
     1
102
RTVSPropertyOp0
 70
     1
102
RTVSPropertyOp1
 70
     1
102
RTVSPropertyOp2
 70
     1
102
RTVSPropertyOp3
 70
     1
102
RTVSPropertyOp4
 70
     1
102
RTVSPropertyOp5
 70
     1
102
RTVSPropertyOp6
 70
     1
102
RTVSPropertyOp7
 70
     1
102
RTVSPropertyOp8
 70
     1
102
RTVSPropertyOp9
 70
     1
102
RTVSPropertyOp10
 70
     1
102
RTVSPropertyOp11
 70
     1
102
RTVSPropertyOp12
 70
     1
102
RTVSPropertyOp13
 70
     1
102
RTVSPropertyOp14
 70
     1
102
RTVSPropertyOp15
 70
     1
102
RTVSPropertyOp16
 70
     1
102
RTVSPropertyOp17
 70
     1
102
RTVSPropertyOp18
 70
     1
102
RTVSPropertyOp19
 70
     1
102
RTVSPropertyOp20
 70
     1
102
RTVSPropertyOp21
 70
     1
102
RTVSPropertyOp22
 70
     1
102
RTVSPropertyOp23
 70
     1
102
RTVSPropertyOp24
 70
     1
102
RTVSPropertyOp25
 70
     1
102
RTVSPropertyOp26
 70
     1
102
RTVSPropertyOp27
 70
     1
102
RTVSPropertyOp28
 70
     1
102
RTVSPropertyOp29
 70
     1
102
RTVSPropertyOp30
 70
     1
102
RTVSPropertyOp31
 70
     1
102
RTVSPropertyOp32
 70
     1
102
RTVSPropertyOp33
 70
     1
102
RTVSPropertyOp34
 70
     1
102
RTVSPropertyOp35
 70
     1
102
RTVSPropertyOp36
 70
     1
102
RTVSPropertyOp37
 70
     1
102
RTVSPropertyOp38
 70
     1
102
RTVSPropertyOp39
 70
     1
102
RTVSPropertyOp40
 70
     1
102
RTVSPropertyOp41
 70
     1
102
RTVSPropertyOp42
 70
     1
102
RTVSPropertyOp43
 70
     1
102
RTVSPropertyOp44
 70
     1
102
RTVSPropertyOp45
 70
     1
102
RTVSPropertyOp46
 70
     1
102
RTVSPropertyOp47
 70
     1
102
RTVSPropertyOp48
 70
     1
102
RTVSPropertyOp49
 70
     1
102
RTVSPropertyOp50
 70
     1
102
RTVSPropertyOp51
 70
     0
102
RTVSPropertyOp52
 70
     0
102
RTVSPropertyOp53
 70
     1
102
RTVSPropertyOp54
 70
     1
102
RTVSPropertyOp55
 70
     1
102
RTVSPropertyOp56
 70
     1
102
RTVSPropertyOp57
 70
     1
102
RTVSPropertyOp58
 70
     1
102
RTVSPropertyOp59
 70
     1
102
RTVSPropertyOp60
 70
     1
102
RTVSPropertyOp61
 70
     1
102
RTVSPropertyOp62
 70
     1
  0
XRECORD
  5
644D
102
{ACAD_REACTORS
330
644C
102
}
330
644C
100
AcDbXrecord
280
     1
102
RTVSPost2010Prop28
280
     0
102
RTVSPost2010PropOp28
 70
     1
102
RTVSPost2010Prop29
280
     1
102
RTVSPost2010PropOp29
 70
     1
102
RTVSPost2010Prop30
280
     1
102
RTVSPost2010PropOp30
 70
     1
102
RTVSPost2010Prop31
280
     0
102
RTVSPost2010PropOp31
 70
     1
102
RTVSPost2010Prop32
280
     0
102
RTVSPost2010PropOp32
 70
     1
102
RTVSPost2010Prop33
280
     0
102
RTVSPost2010PropOp33
 70
     1
102
RTVSPost2010Prop34
280
     0
102
RTVSPost2010PropOp34
 70
     1
102
RTVSPost2010Prop35
280
     0
102
RTVSPost2010PropOp35
 70
     1
102
RTVSPost2010Prop36
280
     0
102
RTVSPost2010PropOp36
 70
     1
102
RTVSPost2010Prop37
 90
       50
102
RTVSPost2010PropOp37
 70
     1
102
RTVSPost2010Prop38
140
0.0
102
RTVSPost2010PropOp38
 70
     1
102
RTVSPost2010Prop39
140
1.0
102
RTVSPost2010PropOp39
 70
     1
102
RTVSPost2010Prop40
 90
        0
102
RTVSPost2010PropOp40
 70
     1
102
RTVSPost2010Prop41ColorIndex
 90
       18
102
RTVSPost2010Prop41ColorRGB
 90
        0
102
RTVSPost2010PropOp41
 70
     1
102
RTVSPost2010Prop42
 90
       50
102
RTVSPost2010PropOp42
 70
     1
102
RTVSPost2010Prop43
 90
        3
102
RTVSPost2010PropOp43
 70
     1
102
RTVSPost2010Prop44ColorIndex
 90
        5
102
RTVSPost2010Prop44ColorRGB
 90
      255
102
RTVSPost2010PropOp44
 70
     1
102
RTVSPost2010Prop45
280
     0
102
RTVSPost2010PropOp45
 70
     1
102
RTVSPost2010Prop46
 90
       50
102
RTVSPost2010PropOp46
 70
     1
102
RTVSPost2010Prop47
 90
       50
102
RTVSPost2010PropOp47
 70
     1
102
RTVSPost2010Prop48
 90
       50
102
RTVSPost2010PropOp48
 70
     1
102
RTVSPost2010Prop49
280
     0
102
RTVSPost2010PropOp49
 70
     1
102
RTVSPost2010Prop50
 90
       50
102
RTVSPost2010PropOp50
 70
     1
102
RTVSPost2010Prop51ColorIndex
 90
      256
102
RTVSPost2010Prop51ColorRGB
 90
-16777216
102
RTVSPost2010PropOp51
 70
     0
102
RTVSPost2010Prop52
140
1.0
102
RTVSPost2010PropOp52
 70
     0
102
RTVSPost2010Prop53
 90
        2
102
RTVSPost2010PropOp53
 70
     1
102
RTVSPost2010Prop54
  1
strokes_ogs.tif
102
RTVSPost2010PropOp54
 70
     1
102
RTVSPost2010Prop55
280
     0
102
RTVSPost2010PropOp55
 70
     1
102
RTVSPost2010Prop56
140
1.0
102
RTVSPost2010PropOp56
 70
     1
102
RTVSPost2010Prop57
140
1.0
102
RTVSPost2010PropOp57
 70
     1
102
RTVSPropertyOp0
 70
     1
102
RTVSPropertyOp1
 70
     1
102
RTVSPropertyOp2
 70
     1
102
RTVSPropertyOp3
 70
     1
102
RTVSPropertyOp4
 70
     1
102
RTVSPropertyOp5
 70
     1
102
RTVSPropertyOp6
 70
     1
102
RTVSPropertyOp7
 70
     1
102
RTVSPropertyOp8
 70
     1
102
RTVSPropertyOp9
 70
     1
102
RTVSPropertyOp10
 70
     1
102
RTVSPropertyOp11
 70
     1
102
RTVSPropertyOp12
 70
     1
102
RTVSPropertyOp13
 70
     1
102
RTVSPropertyOp14
 70
     1
102
RTVSPropertyOp15
 70
     1
102
RTVSPropertyOp16
 70
     1
102
RTVSPropertyOp17
 70
     1
102
RTVSPropertyOp18
 70
     1
102
RTVSPropertyOp19
 70
     1
102
RTVSPropertyOp20
 70
     1
102
RTVSPropertyOp21
 70
     1
102
RTVSPropertyOp22
 70
     1
102
RTVSPropertyOp23
 70
     1
102
RTVSPropertyOp24
 70
     1
102
RTVSPropertyOp25
 70
     1
102
RTVSPropertyOp26
 70
     1
102
RTVSPropertyOp27
 70
     1
102
RTVSPropertyOp28
 70
     1
102
RTVSPropertyOp29
 70
     1
102
RTVSPropertyOp30
 70
     1
102
RTVSPropertyOp31
 70
     1
102
RTVSPropertyOp32
 70
     1
102
RTVSPropertyOp33
 70
     1
102
RTVSPropertyOp34
 70
     1
102
RTVSPropertyOp35
 70
     1
102
RTVSPropertyOp36
 70
     1
102
RTVSPropertyOp37
 70
     1
102
RTVSPropertyOp38
 70
     1
102
RTVSPropertyOp39
 70
     1
102
RTVSPropertyOp40
 70
     1
102
RTVSPropertyOp41
 70
     1
102
RTVSPropertyOp42
 70
     1
102
RTVSPropertyOp43
 70
     1
102
RTVSPropertyOp44
 70
     1
102
RTVSPropertyOp45
 70
     1
102
RTVSPropertyOp46
 70
     1
102
RTVSPropertyOp47
 70
     1
102
RTVSPropertyOp48
 70
     1
102
RTVSPropertyOp49
 70
     1
102
RTVSPropertyOp50
 70
     1
102
RTVSPropertyOp51
 70
     0
102
RTVSPropertyOp52
 70
     0
102
RTVSPropertyOp53
 70
     1
102
RTVSPropertyOp54
 70
     1
102
RTVSPropertyOp55
 70
     1
102
RTVSPropertyOp56
 70
     1
102
RTVSPropertyOp57
 70
     1
102
RTVSPropertyOp58
 70
     1
102
RTVSPropertyOp59
 70
     1
102
RTVSPropertyOp60
 70
     1
102
RTVSPropertyOp61
 70
     1
102
RTVSPropertyOp62
 70
     1
  0
XRECORD
  5
644F
102
{ACAD_REACTORS
330
644E
102
}
330
644E
100
AcDbXrecord
280
     1
102
RTVSPost2010Prop28
280
     0
102
RTVSPost2010PropOp28
 70
     1
102
RTVSPost2010Prop29
280
     1
102
RTVSPost2010PropOp29
 70
     1
102
RTVSPost2010Prop30
280
     1
102
RTVSPost2010PropOp30
 70
     1
102
RTVSPost2010Prop31
280
     0
102
RTVSPost2010PropOp31
 70
     1
102
RTVSPost2010Prop32
280
     0
102
RTVSPost2010PropOp32
 70
     1
102
RTVSPost2010Prop33
280
     0
102
RTVSPost2010PropOp33
 70
     1
102
RTVSPost2010Prop34
280
     0
102
RTVSPost2010PropOp34
 70
     1
102
RTVSPost2010Prop35
280
     0
102
RTVSPost2010PropOp35
 70
     1
102
RTVSPost2010Prop36
280
     0
102
RTVSPost2010PropOp36
 70
     1
102
RTVSPost2010Prop37
 90
       50
102
RTVSPost2010PropOp37
 70
     1
102
RTVSPost2010Prop38
140
0.0
102
RTVSPost2010PropOp38
 70
     1
102
RTVSPost2010Prop39
140
1.0
102
RTVSPost2010PropOp39
 70
     1
102
RTVSPost2010Prop40
 90
        0
102
RTVSPost2010PropOp40
 70
     1
102
RTVSPost2010Prop41ColorIndex
 90
       18
102
RTVSPost2010Prop41ColorRGB
 90
        0
102
RTVSPost2010PropOp41
 70
     1
102
RTVSPost2010Prop42
 90
       50
102
RTVSPost2010PropOp42
 70
     1
102
RTVSPost2010Prop43
 90
        3
102
RTVSPost2010PropOp43
 70
     1
102
RTVSPost2010Prop44ColorIndex
 90
        5
102
RTVSPost2010Prop44ColorRGB
 90
      255
102
RTVSPost2010PropOp44
 70
     1
102
RTVSPost2010Prop45
280
     0
102
RTVSPost2010PropOp45
 70
     1
102
RTVSPost2010Prop46
 90
       50
102
RTVSPost2010PropOp46
 70
     1
102
RTVSPost2010Prop47
 90
       50
102
RTVSPost2010PropOp47
 70
     1
102
RTVSPost2010Prop48
 90
       50
102
RTVSPost2010PropOp48
 70
     1
102
RTVSPost2010Prop49
280
     0
102
RTVSPost2010PropOp49
 70
     1
102
RTVSPost2010Prop50
 90
       50
102
RTVSPost2010PropOp50
 70
     1
102
RTVSPost2010Prop51ColorIndex
 90
      256
102
RTVSPost2010Prop51ColorRGB
 90
-16777216
102
RTVSPost2010PropOp51
 70
     0
102
RTVSPost2010Prop52
140
1.0
102
RTVSPost2010PropOp52
 70
     0
102
RTVSPost2010Prop53
 90
        2
102
RTVSPost2010PropOp53
 70
     1
102
RTVSPost2010Prop54
  1
strokes_ogs.tif
102
RTVSPost2010PropOp54
 70
     1
102
RTVSPost2010Prop55
280
     0
102
RTVSPost2010PropOp55
 70
     1
102
RTVSPost2010Prop56
140
1.0
102
RTVSPost2010PropOp56
 70
     1
102
RTVSPost2010Prop57
140
1.0
102
RTVSPost2010PropOp57
 70
     1
102
RTVSPropertyOp0
 70
     1
102
RTVSPropertyOp1
 70
     1
102
RTVSPropertyOp2
 70
     1
102
RTVSPropertyOp3
 70
     1
102
RTVSPropertyOp4
 70
     1
102
RTVSPropertyOp5
 70
     1
102
RTVSPropertyOp6
 70
     1
102
RTVSPropertyOp7
 70
     1
102
RTVSPropertyOp8
 70
     1
102
RTVSPropertyOp9
 70
     1
102
RTVSPropertyOp10
 70
     1
102
RTVSPropertyOp11
 70
     1
102
RTVSPropertyOp12
 70
     1
102
RTVSPropertyOp13
 70
     1
102
RTVSPropertyOp14
 70
     1
102
RTVSPropertyOp15
 70
     1
102
RTVSPropertyOp16
 70
     1
102
RTVSPropertyOp17
 70
     1
102
RTVSPropertyOp18
 70
     1
102
RTVSPropertyOp19
 70
     1
102
RTVSPropertyOp20
 70
     1
102
RTVSPropertyOp21
 70
     1
102
RTVSPropertyOp22
 70
     1
102
RTVSPropertyOp23
 70
     1
102
RTVSPropertyOp24
 70
     1
102
RTVSPropertyOp25
 70
     1
102
RTVSPropertyOp26
 70
     1
102
RTVSPropertyOp27
 70
     1
102
RTVSPropertyOp28
 70
     1
102
RTVSPropertyOp29
 70
     1
102
RTVSPropertyOp30
 70
     1
102
RTVSPropertyOp31
 70
     1
102
RTVSPropertyOp32
 70
     1
102
RTVSPropertyOp33
 70
     1
102
RTVSPropertyOp34
 70
     1
102
RTVSPropertyOp35
 70
     1
102
RTVSPropertyOp36
 70
     1
102
RTVSPropertyOp37
 70
     1
102
RTVSPropertyOp38
 70
     1
102
RTVSPropertyOp39
 70
     1
102
RTVSPropertyOp40
 70
     1
102
RTVSPropertyOp41
 70
     1
102
RTVSPropertyOp42
 70
     1
102
RTVSPropertyOp43
 70
     1
102
RTVSPropertyOp44
 70
     1
102
RTVSPropertyOp45
 70
     1
102
RTVSPropertyOp46
 70
     1
102
RTVSPropertyOp47
 70
     1
102
RTVSPropertyOp48
 70
     1
102
RTVSPropertyOp49
 70
     1
102
RTVSPropertyOp50
 70
     1
102
RTVSPropertyOp51
 70
     0
102
RTVSPropertyOp52
 70
     0
102
RTVSPropertyOp53
 70
     1
102
RTVSPropertyOp54
 70
     1
102
RTVSPropertyOp55
 70
     1
102
RTVSPropertyOp56
 70
     1
102
RTVSPropertyOp57
 70
     1
102
RTVSPropertyOp58
 70
     1
102
RTVSPropertyOp59
 70
     1
102
RTVSPropertyOp60
 70
     1
102
RTVSPropertyOp61
 70
     1
102
RTVSPropertyOp62
 70
     1
  0
XRECORD
  5
6457
102
{ACAD_REACTORS
330
6456
102
}
330
6456
100
AcDbXrecord
280
     1
102
RTVSPost2010Prop28
280
     0
102
RTVSPost2010PropOp28
 70
     1
102
RTVSPost2010Prop29
280
     1
102
RTVSPost2010PropOp29
 70
     1
102
RTVSPost2010Prop30
280
     1
102
RTVSPost2010PropOp30
 70
     1
102
RTVSPost2010Prop31
280
     0
102
RTVSPost2010PropOp31
 70
     1
102
RTVSPost2010Prop32
280
     0
102
RTVSPost2010PropOp32
 70
     1
102
RTVSPost2010Prop33
280
     0
102
RTVSPost2010PropOp33
 70
     1
102
RTVSPost2010Prop34
280
     0
102
RTVSPost2010PropOp34
 70
     1
102
RTVSPost2010Prop35
280
     0
102
RTVSPost2010PropOp35
 70
     1
102
RTVSPost2010Prop36
280
     0
102
RTVSPost2010PropOp36
 70
     1
102
RTVSPost2010Prop37
 90
       50
102
RTVSPost2010PropOp37
 70
     1
102
RTVSPost2010Prop38
140
0.0
102
RTVSPost2010PropOp38
 70
     1
102
RTVSPost2010Prop39
140
1.0
102
RTVSPost2010PropOp39
 70
     1
102
RTVSPost2010Prop40
 90
        0
102
RTVSPost2010PropOp40
 70
     1
102
RTVSPost2010Prop41ColorIndex
 90
       18
102
RTVSPost2010Prop41ColorRGB
 90
        0
102
RTVSPost2010PropOp41
 70
     1
102
RTVSPost2010Prop42
 90
       50
102
RTVSPost2010PropOp42
 70
     1
102
RTVSPost2010Prop43
 90
        3
102
RTVSPost2010PropOp43
 70
     1
102
RTVSPost2010Prop44ColorIndex
 90
        5
102
RTVSPost2010Prop44ColorRGB
 90
      255
102
RTVSPost2010PropOp44
 70
     1
102
RTVSPost2010Prop45
280
     0
102
RTVSPost2010PropOp45
 70
     1
102
RTVSPost2010Prop46
 90
       50
102
RTVSPost2010PropOp46
 70
     1
102
RTVSPost2010Prop47
 90
       50
102
RTVSPost2010PropOp47
 70
     1
102
RTVSPost2010Prop48
 90
       50
102
RTVSPost2010PropOp48
 70
     1
102
RTVSPost2010Prop49
280
     0
102
RTVSPost2010PropOp49
 70
     1
102
RTVSPost2010Prop50
 90
       50
102
RTVSPost2010PropOp50
 70
     1
102
RTVSPost2010Prop51ColorIndex
 90
      256
102
RTVSPost2010Prop51ColorRGB
 90
-16777216
102
RTVSPost2010PropOp51
 70
     0
102
RTVSPost2010Prop52
140
1.0
102
RTVSPost2010PropOp52
 70
     0
102
RTVSPost2010Prop53
 90
        2
102
RTVSPost2010PropOp53
 70
     1
102
RTVSPost2010Prop54
  1
strokes_ogs.tif
102
RTVSPost2010PropOp54
 70
     1
102
RTVSPost2010Prop55
280
     0
102
RTVSPost2010PropOp55
 70
     1
102
RTVSPost2010Prop56
140
1.0
102
RTVSPost2010PropOp56
 70
     1
102
RTVSPost2010Prop57
140
1.0
102
RTVSPost2010PropOp57
 70
     1
102
RTVSPropertyOp0
 70
     1
102
RTVSPropertyOp1
 70
     1
102
RTVSPropertyOp2
 70
     1
102
RTVSPropertyOp3
 70
     1
102
RTVSPropertyOp4
 70
     1
102
RTVSPropertyOp5
 70
     1
102
RTVSPropertyOp6
 70
     1
102
RTVSPropertyOp7
 70
     1
102
RTVSPropertyOp8
 70
     1
102
RTVSPropertyOp9
 70
     1
102
RTVSPropertyOp10
 70
     1
102
RTVSPropertyOp11
 70
     1
102
RTVSPropertyOp12
 70
     1
102
RTVSPropertyOp13
 70
     1
102
RTVSPropertyOp14
 70
     1
102
RTVSPropertyOp15
 70
     1
102
RTVSPropertyOp16
 70
     1
102
RTVSPropertyOp17
 70
     1
102
RTVSPropertyOp18
 70
     1
102
RTVSPropertyOp19
 70
     1
102
RTVSPropertyOp20
 70
     1
102
RTVSPropertyOp21
 70
     1
102
RTVSPropertyOp22
 70
     1
102
RTVSPropertyOp23
 70
     1
102
RTVSPropertyOp24
 70
     1
102
RTVSPropertyOp25
 70
     1
102
RTVSPropertyOp26
 70
     1
102
RTVSPropertyOp27
 70
     1
102
RTVSPropertyOp28
 70
     1
102
RTVSPropertyOp29
 70
     1
102
RTVSPropertyOp30
 70
     1
102
RTVSPropertyOp31
 70
     1
102
RTVSPropertyOp32
 70
     1
102
RTVSPropertyOp33
 70
     1
102
RTVSPropertyOp34
 70
     1
102
RTVSPropertyOp35
 70
     1
102
RTVSPropertyOp36
 70
     1
102
RTVSPropertyOp37
 70
     1
102
RTVSPropertyOp38
 70
     1
102
RTVSPropertyOp39
 70
     1
102
RTVSPropertyOp40
 70
     1
102
RTVSPropertyOp41
 70
     1
102
RTVSPropertyOp42
 70
     1
102
RTVSPropertyOp43
 70
     1
102
RTVSPropertyOp44
 70
     1
102
RTVSPropertyOp45
 70
     1
102
RTVSPropertyOp46
 70
     1
102
RTVSPropertyOp47
 70
     1
102
RTVSPropertyOp48
 70
     1
102
RTVSPropertyOp49
 70
     1
102
RTVSPropertyOp50
 70
     1
102
RTVSPropertyOp51
 70
     0
102
RTVSPropertyOp52
 70
     0
102
RTVSPropertyOp53
 70
     1
102
RTVSPropertyOp54
 70
     1
102
RTVSPropertyOp55
 70
     1
102
RTVSPropertyOp56
 70
     1
102
RTVSPropertyOp57
 70
     1
102
RTVSPropertyOp58
 70
     1
102
RTVSPropertyOp59
 70
     1
102
RTVSPropertyOp60
 70
     1
102
RTVSPropertyOp61
 70
     1
102
RTVSPropertyOp62
 70
     1
  0
XRECORD
  5
6473
102
{ACAD_REACTORS
330
6472
102
}
330
6472
100
AcDbXrecord
280
     1
102
RTVSPost2010Prop28
280
     0
102
RTVSPost2010PropOp28
 70
     0
102
RTVSPost2010Prop29
280
     1
102
RTVSPost2010PropOp29
 70
     0
102
RTVSPost2010Prop30
280
     1
102
RTVSPost2010PropOp30
 70
     0
102
RTVSPost2010Prop31
280
     0
102
RTVSPost2010PropOp31
 70
     0
102
RTVSPost2010Prop32
280
     0
102
RTVSPost2010PropOp32
 70
     0
102
RTVSPost2010Prop33
280
     0
102
RTVSPost2010PropOp33
 70
     0
102
RTVSPost2010Prop34
280
     0
102
RTVSPost2010PropOp34
 70
     0
102
RTVSPost2010Prop35
280
     0
102
RTVSPost2010PropOp35
 70
     0
102
RTVSPost2010Prop36
280
     0
102
RTVSPost2010PropOp36
 70
     0
102
RTVSPost2010Prop37
 90
       50
102
RTVSPost2010PropOp37
 70
     0
102
RTVSPost2010Prop38
140
0.0
102
RTVSPost2010PropOp38
 70
     0
102
RTVSPost2010Prop39
140
1.0
102
RTVSPost2010PropOp39
 70
     0
102
RTVSPost2010Prop40
 90
        0
102
RTVSPost2010PropOp40
 70
     0
102
RTVSPost2010Prop41ColorIndex
 90
       18
102
RTVSPost2010Prop41ColorRGB
 90
        0
102
RTVSPost2010PropOp41
 70
     0
102
RTVSPost2010Prop42
 90
       50
102
RTVSPost2010PropOp42
 70
     0
102
RTVSPost2010Prop43
 90
        3
102
RTVSPost2010PropOp43
 70
     0
102
RTVSPost2010Prop44ColorIndex
 90
        5
102
RTVSPost2010Prop44ColorRGB
 90
      255
102
RTVSPost2010PropOp44
 70
     0
102
RTVSPost2010Prop45
280
     0
102
RTVSPost2010PropOp45
 70
     0
102
RTVSPost2010Prop46
 90
       50
102
RTVSPost2010PropOp46
 70
     0
102
RTVSPost2010Prop47
 90
       50
102
RTVSPost2010PropOp47
 70
     0
102
RTVSPost2010Prop48
 90
       50
102
RTVSPost2010PropOp48
 70
     0
102
RTVSPost2010Prop49
280
     0
102
RTVSPost2010PropOp49
 70
     0
102
RTVSPost2010Prop50
 90
       50
102
RTVSPost2010PropOp50
 70
     0
102
RTVSPost2010Prop51ColorIndex
 90
      256
102
RTVSPost2010Prop51ColorRGB
 90
-16777216
102
RTVSPost2010PropOp51
 70
     0
102
RTVSPost2010Prop52
140
1.0
102
RTVSPost2010PropOp52
 70
     0
102
RTVSPost2010Prop53
 90
        2
102
RTVSPost2010PropOp53
 70
     0
102
RTVSPost2010Prop54
  1
strokes_ogs.tif
102
RTVSPost2010PropOp54
 70
     0
102
RTVSPost2010Prop55
280
     0
102
RTVSPost2010PropOp55
 70
     0
102
RTVSPost2010Prop56
140
1.0
102
RTVSPost2010PropOp56
 70
     0
102
RTVSPost2010Prop57
140
1.0
102
RTVSPost2010PropOp57
 70
     0
102
RTVSPropertyOp0
 70
     0
102
RTVSPropertyOp1
 70
     0
102
RTVSPropertyOp2
 70
     0
102
RTVSPropertyOp3
 70
     0
102
RTVSPropertyOp4
 70
     0
102
RTVSPropertyOp5
 70
     0
102
RTVSPropertyOp6
 70
     0
102
RTVSPropertyOp7
 70
     0
102
RTVSPropertyOp8
 70
     0
102
RTVSPropertyOp9
 70
     0
102
RTVSPropertyOp10
 70
     0
102
RTVSPropertyOp11
 70
     0
102
RTVSPropertyOp12
 70
     0
102
RTVSPropertyOp13
 70
     0
102
RTVSPropertyOp14
 70
     2
102
RTVSPropertyOp15
 70
     0
102
RTVSPropertyOp16
 70
     0
102
RTVSPropertyOp17
 70
     0
102
RTVSPropertyOp18
 70
     0
102
RTVSPropertyOp19
 70
     0
102
RTVSPropertyOp20
 70
     0
102
RTVSPropertyOp21
 70
     0
102
RTVSPropertyOp22
 70
     0
102
RTVSPropertyOp23
 70
     0
102
RTVSPropertyOp24
 70
     0
102
RTVSPropertyOp25
 70
     0
102
RTVSPropertyOp26
 70
     0
102
RTVSPropertyOp27
 70
     0
102
RTVSPropertyOp28
 70
     0
102
RTVSPropertyOp29
 70
     0
102
RTVSPropertyOp30
 70
     0
102
RTVSPropertyOp31
 70
     0
102
RTVSPropertyOp32
 70
     0
102
RTVSPropertyOp33
 70
     0
102
RTVSPropertyOp34
 70
     0
102
RTVSPropertyOp35
 70
     0
102
RTVSPropertyOp36
 70
     0
102
RTVSPropertyOp37
 70
     0
102
RTVSPropertyOp38
 70
     0
102
RTVSPropertyOp39
 70
     0
102
RTVSPropertyOp40
 70
     0
102
RTVSPropertyOp41
 70
     0
102
RTVSPropertyOp42
 70
     0
102
RTVSPropertyOp43
 70
     0
102
RTVSPropertyOp44
 70
     0
102
RTVSPropertyOp45
 70
     0
102
RTVSPropertyOp46
 70
     0
102
RTVSPropertyOp47
 70
     0
102
RTVSPropertyOp48
 70
     0
102
RTVSPropertyOp49
 70
     0
102
RTVSPropertyOp50
 70
     0
102
RTVSPropertyOp51
 70
     0
102
RTVSPropertyOp52
 70
     0
102
RTVSPropertyOp53
 70
     0
102
RTVSPropertyOp54
 70
     0
102
RTVSPropertyOp55
 70
     0
102
RTVSPropertyOp56
 70
     0
102
RTVSPropertyOp57
 70
     0
102
RTVSPropertyOp58
 70
     0
102
RTVSPropertyOp59
 70
     0
102
RTVSPropertyOp60
 70
     0
102
RTVSPropertyOp61
 70
     0
102
RTVSPropertyOp62
 70
     0
  0
XRECORD
  5
6463
102
{ACAD_REACTORS
330
6462
102
}
330
6462
100
AcDbXrecord
280
     1
102
RTVSPost2010Prop28
280
     0
102
RTVSPost2010PropOp28
 70
     1
102
RTVSPost2010Prop29
280
     1
102
RTVSPost2010PropOp29
 70
     1
102
RTVSPost2010Prop30
280
     1
102
RTVSPost2010PropOp30
 70
     1
102
RTVSPost2010Prop31
280
     0
102
RTVSPost2010PropOp31
 70
     1
102
RTVSPost2010Prop32
280
     0
102
RTVSPost2010PropOp32
 70
     1
102
RTVSPost2010Prop33
280
     0
102
RTVSPost2010PropOp33
 70
     1
102
RTVSPost2010Prop34
280
     0
102
RTVSPost2010PropOp34
 70
     1
102
RTVSPost2010Prop35
280
     0
102
RTVSPost2010PropOp35
 70
     1
102
RTVSPost2010Prop36
280
     0
102
RTVSPost2010PropOp36
 70
     1
102
RTVSPost2010Prop37
 90
       50
102
RTVSPost2010PropOp37
 70
     1
102
RTVSPost2010Prop38
140
0.0
102
RTVSPost2010PropOp38
 70
     1
102
RTVSPost2010Prop39
140
1.0
102
RTVSPost2010PropOp39
 70
     1
102
RTVSPost2010Prop40
 90
        0
102
RTVSPost2010PropOp40
 70
     1
102
RTVSPost2010Prop41ColorIndex
 90
       18
102
RTVSPost2010Prop41ColorRGB
 90
        0
102
RTVSPost2010PropOp41
 70
     1
102
RTVSPost2010Prop42
 90
       50
102
RTVSPost2010PropOp42
 70
     1
102
RTVSPost2010Prop43
 90
        3
102
RTVSPost2010PropOp43
 70
     1
102
RTVSPost2010Prop44ColorIndex
 90
        5
102
RTVSPost2010Prop44ColorRGB
 90
      255
102
RTVSPost2010PropOp44
 70
     1
102
RTVSPost2010Prop45
280
     0
102
RTVSPost2010PropOp45
 70
     1
102
RTVSPost2010Prop46
 90
       50
102
RTVSPost2010PropOp46
 70
     1
102
RTVSPost2010Prop47
 90
       50
102
RTVSPost2010PropOp47
 70
     1
102
RTVSPost2010Prop48
 90
       50
102
RTVSPost2010PropOp48
 70
     1
102
RTVSPost2010Prop49
280
     0
102
RTVSPost2010PropOp49
 70
     1
102
RTVSPost2010Prop50
 90
       50
102
RTVSPost2010PropOp50
 70
     1
102
RTVSPost2010Prop51ColorIndex
 90
      256
102
RTVSPost2010Prop51ColorRGB
 90
-16777216
102
RTVSPost2010PropOp51
 70
     0
102
RTVSPost2010Prop52
140
1.0
102
RTVSPost2010PropOp52
 70
     0
102
RTVSPost2010Prop53
 90
        2
102
RTVSPost2010PropOp53
 70
     1
102
RTVSPost2010Prop54
  1
strokes_ogs.tif
102
RTVSPost2010PropOp54
 70
     1
102
RTVSPost2010Prop55
280
     0
102
RTVSPost2010PropOp55
 70
     1
102
RTVSPost2010Prop56
140
1.0
102
RTVSPost2010PropOp56
 70
     1
102
RTVSPost2010Prop57
140
1.0
102
RTVSPost2010PropOp57
 70
     1
102
RTVSPropertyOp0
 70
     1
102
RTVSPropertyOp1
 70
     1
102
RTVSPropertyOp2
 70
     1
102
RTVSPropertyOp3
 70
     1
102
RTVSPropertyOp4
 70
     1
102
RTVSPropertyOp5
 70
     1
102
RTVSPropertyOp6
 70
     1
102
RTVSPropertyOp7
 70
     1
102
RTVSPropertyOp8
 70
     1
102
RTVSPropertyOp9
 70
     1
102
RTVSPropertyOp10
 70
     1
102
RTVSPropertyOp11
 70
     1
102
RTVSPropertyOp12
 70
     1
102
RTVSPropertyOp13
 70
     1
102
RTVSPropertyOp14
 70
     1
102
RTVSPropertyOp15
 70
     1
102
RTVSPropertyOp16
 70
     1
102
RTVSPropertyOp17
 70
     1
102
RTVSPropertyOp18
 70
     1
102
RTVSPropertyOp19
 70
     1
102
RTVSPropertyOp20
 70
     1
102
RTVSPropertyOp21
 70
     1
102
RTVSPropertyOp22
 70
     1
102
RTVSPropertyOp23
 70
     1
102
RTVSPropertyOp24
 70
     1
102
RTVSPropertyOp25
 70
     1
102
RTVSPropertyOp26
 70
     1
102
RTVSPropertyOp27
 70
     1
102
RTVSPropertyOp28
 70
     1
102
RTVSPropertyOp29
 70
     1
102
RTVSPropertyOp30
 70
     1
102
RTVSPropertyOp31
 70
     1
102
RTVSPropertyOp32
 70
     1
102
RTVSPropertyOp33
 70
     1
102
RTVSPropertyOp34
 70
     1
102
RTVSPropertyOp35
 70
     1
102
RTVSPropertyOp36
 70
     1
102
RTVSPropertyOp37
 70
     1
102
RTVSPropertyOp38
 70
     1
102
RTVSPropertyOp39
 70
     1
102
RTVSPropertyOp40
 70
     1
102
RTVSPropertyOp41
 70
     1
102
RTVSPropertyOp42
 70
     1
102
RTVSPropertyOp43
 70
     1
102
RTVSPropertyOp44
 70
     1
102
RTVSPropertyOp45
 70
     1
102
RTVSPropertyOp46
 70
     1
102
RTVSPropertyOp47
 70
     1
102
RTVSPropertyOp48
 70
     1
102
RTVSPropertyOp49
 70
     1
102
RTVSPropertyOp50
 70
     1
102
RTVSPropertyOp51
 70
     0
102
RTVSPropertyOp52
 70
     0
102
RTVSPropertyOp53
 70
     1
102
RTVSPropertyOp54
 70
     1
102
RTVSPropertyOp55
 70
     1
102
RTVSPropertyOp56
 70
     1
102
RTVSPropertyOp57
 70
     1
102
RTVSPropertyOp58
 70
     1
102
RTVSPropertyOp59
 70
     1
102
RTVSPropertyOp60
 70
     1
102
RTVSPropertyOp61
 70
     1
102
RTVSPropertyOp62
 70
     1
  0
XRECORD
  5
6475
102
{ACAD_REACTORS
330
6474
102
}
330
6474
100
AcDbXrecord
280
     1
102
RTVSPost2010Prop28
280
     0
102
RTVSPost2010PropOp28
 70
     0
102
RTVSPost2010Prop29
280
     1
102
RTVSPost2010PropOp29
 70
     0
102
RTVSPost2010Prop30
280
     1
102
RTVSPost2010PropOp30
 70
     0
102
RTVSPost2010Prop31
280
     0
102
RTVSPost2010PropOp31
 70
     0
102
RTVSPost2010Prop32
280
     0
102
RTVSPost2010PropOp32
 70
     0
102
RTVSPost2010Prop33
280
     0
102
RTVSPost2010PropOp33
 70
     0
102
RTVSPost2010Prop34
280
     0
102
RTVSPost2010PropOp34
 70
     0
102
RTVSPost2010Prop35
280
     0
102
RTVSPost2010PropOp35
 70
     0
102
RTVSPost2010Prop36
280
     0
102
RTVSPost2010PropOp36
 70
     0
102
RTVSPost2010Prop37
 90
       50
102
RTVSPost2010PropOp37
 70
     0
102
RTVSPost2010Prop38
140
0.0
102
RTVSPost2010PropOp38
 70
     0
102
RTVSPost2010Prop39
140
1.0
102
RTVSPost2010PropOp39
 70
     0
102
RTVSPost2010Prop40
 90
        0
102
RTVSPost2010PropOp40
 70
     0
102
RTVSPost2010Prop41ColorIndex
 90
       18
102
RTVSPost2010Prop41ColorRGB
 90
        0
102
RTVSPost2010PropOp41
 70
     0
102
RTVSPost2010Prop42
 90
       50
102
RTVSPost2010PropOp42
 70
     0
102
RTVSPost2010Prop43
 90
        3
102
RTVSPost2010PropOp43
 70
     0
102
RTVSPost2010Prop44ColorIndex
 90
        5
102
RTVSPost2010Prop44ColorRGB
 90
      255
102
RTVSPost2010PropOp44
 70
     0
102
RTVSPost2010Prop45
280
     0
102
RTVSPost2010PropOp45
 70
     0
102
RTVSPost2010Prop46
 90
       50
102
RTVSPost2010PropOp46
 70
     0
102
RTVSPost2010Prop47
 90
       50
102
RTVSPost2010PropOp47
 70
     0
102
RTVSPost2010Prop48
 90
       50
102
RTVSPost2010PropOp48
 70
     0
102
RTVSPost2010Prop49
280
     0
102
RTVSPost2010PropOp49
 70
     0
102
RTVSPost2010Prop50
 90
       50
102
RTVSPost2010PropOp50
 70
     0
102
RTVSPost2010Prop51ColorIndex
 90
      256
102
RTVSPost2010Prop51ColorRGB
 90
-16777216
102
RTVSPost2010PropOp51
 70
     0
102
RTVSPost2010Prop52
140
1.0
102
RTVSPost2010PropOp52
 70
     0
102
RTVSPost2010Prop53
 90
        2
102
RTVSPost2010PropOp53
 70
     0
102
RTVSPost2010Prop54
  1
strokes_ogs.tif
102
RTVSPost2010PropOp54
 70
     0
102
RTVSPost2010Prop55
280
     0
102
RTVSPost2010PropOp55
 70
     0
102
RTVSPost2010Prop56
140
1.0
102
RTVSPost2010PropOp56
 70
     0
102
RTVSPost2010Prop57
140
1.0
102
RTVSPost2010PropOp57
 70
     0
102
RTVSPropertyOp0
 70
     0
102
RTVSPropertyOp1
 70
     0
102
RTVSPropertyOp2
 70
     0
102
RTVSPropertyOp3
 70
     0
102
RTVSPropertyOp4
 70
     0
102
RTVSPropertyOp5
 70
     0
102
RTVSPropertyOp6
 70
     0
102
RTVSPropertyOp7
 70
     0
102
RTVSPropertyOp8
 70
     0
102
RTVSPropertyOp9
 70
     0
102
RTVSPropertyOp10
 70
     0
102
RTVSPropertyOp11
 70
     0
102
RTVSPropertyOp12
 70
     0
102
RTVSPropertyOp13
 70
     0
102
RTVSPropertyOp14
 70
     2
102
RTVSPropertyOp15
 70
     0
102
RTVSPropertyOp16
 70
     0
102
RTVSPropertyOp17
 70
     0
102
RTVSPropertyOp18
 70
     0
102
RTVSPropertyOp19
 70
     0
102
RTVSPropertyOp20
 70
     0
102
RTVSPropertyOp21
 70
     0
102
RTVSPropertyOp22
 70
     0
102
RTVSPropertyOp23
 70
     0
102
RTVSPropertyOp24
 70
     0
102
RTVSPropertyOp25
 70
     0
102
RTVSPropertyOp26
 70
     0
102
RTVSPropertyOp27
 70
     0
102
RTVSPropertyOp28
 70
     0
102
RTVSPropertyOp29
 70
     0
102
RTVSPropertyOp30
 70
     0
102
RTVSPropertyOp31
 70
     0
102
RTVSPropertyOp32
 70
     0
102
RTVSPropertyOp33
 70
     0
102
RTVSPropertyOp34
 70
     0
102
RTVSPropertyOp35
 70
     0
102
RTVSPropertyOp36
 70
     0
102
RTVSPropertyOp37
 70
     0
102
RTVSPropertyOp38
 70
     0
102
RTVSPropertyOp39
 70
     0
102
RTVSPropertyOp40
 70
     0
102
RTVSPropertyOp41
 70
     0
102
RTVSPropertyOp42
 70
     0
102
RTVSPropertyOp43
 70
     0
102
RTVSPropertyOp44
 70
     0
102
RTVSPropertyOp45
 70
     0
102
RTVSPropertyOp46
 70
     0
102
RTVSPropertyOp47
 70
     0
102
RTVSPropertyOp48
 70
     0
102
RTVSPropertyOp49
 70
     0
102
RTVSPropertyOp50
 70
     0
102
RTVSPropertyOp51
 70
     0
102
RTVSPropertyOp52
 70
     0
102
RTVSPropertyOp53
 70
     0
102
RTVSPropertyOp54
 70
     0
102
RTVSPropertyOp55
 70
     0
102
RTVSPropertyOp56
 70
     0
102
RTVSPropertyOp57
 70
     0
102
RTVSPropertyOp58
 70
     0
102
RTVSPropertyOp59
 70
     0
102
RTVSPropertyOp60
 70
     0
102
RTVSPropertyOp61
 70
     0
102
RTVSPropertyOp62
 70
     0
  0
XRECORD
  5
645B
102
{ACAD_REACTORS
330
645A
102
}
330
645A
100
AcDbXrecord
280
     1
102
RTVSPost2010Prop28
280
     0
102
RTVSPost2010PropOp28
 70
     1
102
RTVSPost2010Prop29
280
     1
102
RTVSPost2010PropOp29
 70
     1
102
RTVSPost2010Prop30
280
     1
102
RTVSPost2010PropOp30
 70
     1
102
RTVSPost2010Prop31
280
     0
102
RTVSPost2010PropOp31
 70
     1
102
RTVSPost2010Prop32
280
     0
102
RTVSPost2010PropOp32
 70
     1
102
RTVSPost2010Prop33
280
     0
102
RTVSPost2010PropOp33
 70
     1
102
RTVSPost2010Prop34
280
     0
102
RTVSPost2010PropOp34
 70
     1
102
RTVSPost2010Prop35
280
     0
102
RTVSPost2010PropOp35
 70
     1
102
RTVSPost2010Prop36
280
     0
102
RTVSPost2010PropOp36
 70
     1
102
RTVSPost2010Prop37
 90
       50
102
RTVSPost2010PropOp37
 70
     1
102
RTVSPost2010Prop38
140
0.0
102
RTVSPost2010PropOp38
 70
     1
102
RTVSPost2010Prop39
140
1.0
102
RTVSPost2010PropOp39
 70
     1
102
RTVSPost2010Prop40
 90
        0
102
RTVSPost2010PropOp40
 70
     1
102
RTVSPost2010Prop41ColorIndex
 90
       18
102
RTVSPost2010Prop41ColorRGB
 90
        0
102
RTVSPost2010PropOp41
 70
     1
102
RTVSPost2010Prop42
 90
       50
102
RTVSPost2010PropOp42
 70
     1
102
RTVSPost2010Prop43
 90
        3
102
RTVSPost2010PropOp43
 70
     1
102
RTVSPost2010Prop44ColorIndex
 90
        5
102
RTVSPost2010Prop44ColorRGB
 90
      255
102
RTVSPost2010PropOp44
 70
     1
102
RTVSPost2010Prop45
280
     0
102
RTVSPost2010PropOp45
 70
     1
102
RTVSPost2010Prop46
 90
       50
102
RTVSPost2010PropOp46
 70
     1
102
RTVSPost2010Prop47
 90
       50
102
RTVSPost2010PropOp47
 70
     1
102
RTVSPost2010Prop48
 90
       50
102
RTVSPost2010PropOp48
 70
     1
102
RTVSPost2010Prop49
280
     0
102
RTVSPost2010PropOp49
 70
     1
102
RTVSPost2010Prop50
 90
       50
102
RTVSPost2010PropOp50
 70
     1
102
RTVSPost2010Prop51ColorIndex
 90
      256
102
RTVSPost2010Prop51ColorRGB
 90
-16777216
102
RTVSPost2010PropOp51
 70
     0
102
RTVSPost2010Prop52
140
1.0
102
RTVSPost2010PropOp52
 70
     0
102
RTVSPost2010Prop53
 90
        2
102
RTVSPost2010PropOp53
 70
     1
102
RTVSPost2010Prop54
  1
strokes_ogs.tif
102
RTVSPost2010PropOp54
 70
     1
102
RTVSPost2010Prop55
280
     0
102
RTVSPost2010PropOp55
 70
     1
102
RTVSPost2010Prop56
140
1.0
102
RTVSPost2010PropOp56
 70
     1
102
RTVSPost2010Prop57
140
1.0
102
RTVSPost2010PropOp57
 70
     1
102
RTVSPropertyOp0
 70
     1
102
RTVSPropertyOp1
 70
     1
102
RTVSPropertyOp2
 70
     1
102
RTVSPropertyOp3
 70
     1
102
RTVSPropertyOp4
 70
     1
102
RTVSPropertyOp5
 70
     1
102
RTVSPropertyOp6
 70
     1
102
RTVSPropertyOp7
 70
     1
102
RTVSPropertyOp8
 70
     1
102
RTVSPropertyOp9
 70
     1
102
RTVSPropertyOp10
 70
     1
102
RTVSPropertyOp11
 70
     1
102
RTVSPropertyOp12
 70
     1
102
RTVSPropertyOp13
 70
     1
102
RTVSPropertyOp14
 70
     1
102
RTVSPropertyOp15
 70
     1
102
RTVSPropertyOp16
 70
     1
102
RTVSPropertyOp17
 70
     1
102
RTVSPropertyOp18
 70
     1
102
RTVSPropertyOp19
 70
     1
102
RTVSPropertyOp20
 70
     1
102
RTVSPropertyOp21
 70
     1
102
RTVSPropertyOp22
 70
     1
102
RTVSPropertyOp23
 70
     1
102
RTVSPropertyOp24
 70
     1
102
RTVSPropertyOp25
 70
     1
102
RTVSPropertyOp26
 70
     1
102
RTVSPropertyOp27
 70
     1
102
RTVSPropertyOp28
 70
     1
102
RTVSPropertyOp29
 70
     1
102
RTVSPropertyOp30
 70
     1
102
RTVSPropertyOp31
 70
     1
102
RTVSPropertyOp32
 70
     1
102
RTVSPropertyOp33
 70
     1
102
RTVSPropertyOp34
 70
     1
102
RTVSPropertyOp35
 70
     1
102
RTVSPropertyOp36
 70
     1
102
RTVSPropertyOp37
 70
     1
102
RTVSPropertyOp38
 70
     1
102
RTVSPropertyOp39
 70
     1
102
RTVSPropertyOp40
 70
     1
102
RTVSPropertyOp41
 70
     1
102
RTVSPropertyOp42
 70
     1
102
RTVSPropertyOp43
 70
     1
102
RTVSPropertyOp44
 70
     1
102
RTVSPropertyOp45
 70
     1
102
RTVSPropertyOp46
 70
     1
102
RTVSPropertyOp47
 70
     1
102
RTVSPropertyOp48
 70
     1
102
RTVSPropertyOp49
 70
     1
102
RTVSPropertyOp50
 70
     1
102
RTVSPropertyOp51
 70
     0
102
RTVSPropertyOp52
 70
     0
102
RTVSPropertyOp53
 70
     1
102
RTVSPropertyOp54
 70
     1
102
RTVSPropertyOp55
 70
     1
102
RTVSPropertyOp56
 70
     1
102
RTVSPropertyOp57
 70
     1
102
RTVSPropertyOp58
 70
     1
102
RTVSPropertyOp59
 70
     1
102
RTVSPropertyOp60
 70
     1
102
RTVSPropertyOp61
 70
     1
102
RTVSPropertyOp62
 70
     1
  0
XRECORD
  5
6471
102
{ACAD_REACTORS
330
6470
102
}
330
6470
100
AcDbXrecord
280
     1
102
RTVSPost2010Prop28
280
     0
102
RTVSPost2010PropOp28
 70
     1
102
RTVSPost2010Prop29
280
     1
102
RTVSPost2010PropOp29
 70
     1
102
RTVSPost2010Prop30
280
     1
102
RTVSPost2010PropOp30
 70
     1
102
RTVSPost2010Prop31
280
     0
102
RTVSPost2010PropOp31
 70
     1
102
RTVSPost2010Prop32
280
     0
102
RTVSPost2010PropOp32
 70
     1
102
RTVSPost2010Prop33
280
     0
102
RTVSPost2010PropOp33
 70
     1
102
RTVSPost2010Prop34
280
     0
102
RTVSPost2010PropOp34
 70
     1
102
RTVSPost2010Prop35
280
     0
102
RTVSPost2010PropOp35
 70
     1
102
RTVSPost2010Prop36
280
     0
102
RTVSPost2010PropOp36
 70
     1
102
RTVSPost2010Prop37
 90
       50
102
RTVSPost2010PropOp37
 70
     1
102
RTVSPost2010Prop38
140
0.0
102
RTVSPost2010PropOp38
 70
     1
102
RTVSPost2010Prop39
140
1.0
102
RTVSPost2010PropOp39
 70
     1
102
RTVSPost2010Prop40
 90
        0
102
RTVSPost2010PropOp40
 70
     1
102
RTVSPost2010Prop41ColorIndex
 90
       18
102
RTVSPost2010Prop41ColorRGB
 90
        0
102
RTVSPost2010PropOp41
 70
     1
102
RTVSPost2010Prop42
 90
       50
102
RTVSPost2010PropOp42
 70
     1
102
RTVSPost2010Prop43
 90
        3
102
RTVSPost2010PropOp43
 70
     1
102
RTVSPost2010Prop44ColorIndex
 90
        5
102
RTVSPost2010Prop44ColorRGB
 90
      255
102
RTVSPost2010PropOp44
 70
     1
102
RTVSPost2010Prop45
280
     0
102
RTVSPost2010PropOp45
 70
     1
102
RTVSPost2010Prop46
 90
       50
102
RTVSPost2010PropOp46
 70
     1
102
RTVSPost2010Prop47
 90
       50
102
RTVSPost2010PropOp47
 70
     1
102
RTVSPost2010Prop48
 90
       50
102
RTVSPost2010PropOp48
 70
     1
102
RTVSPost2010Prop49
280
     0
102
RTVSPost2010PropOp49
 70
     1
102
RTVSPost2010Prop50
 90
       50
102
RTVSPost2010PropOp50
 70
     1
102
RTVSPost2010Prop51ColorIndex
 90
      256
102
RTVSPost2010Prop51ColorRGB
 90
-16777216
102
RTVSPost2010PropOp51
 70
     0
102
RTVSPost2010Prop52
140
1.0
102
RTVSPost2010PropOp52
 70
     0
102
RTVSPost2010Prop53
 90
        2
102
RTVSPost2010PropOp53
 70
     1
102
RTVSPost2010Prop54
  1
strokes_ogs.tif
102
RTVSPost2010PropOp54
 70
     1
102
RTVSPost2010Prop55
280
     0
102
RTVSPost2010PropOp55
 70
     1
102
RTVSPost2010Prop56
140
1.0
102
RTVSPost2010PropOp56
 70
     1
102
RTVSPost2010Prop57
140
1.0
102
RTVSPost2010PropOp57
 70
     1
102
RTVSPropertyOp0
 70
     1
102
RTVSPropertyOp1
 70
     1
102
RTVSPropertyOp2
 70
     1
102
RTVSPropertyOp3
 70
     1
102
RTVSPropertyOp4
 70
     1
102
RTVSPropertyOp5
 70
     1
102
RTVSPropertyOp6
 70
     1
102
RTVSPropertyOp7
 70
     1
102
RTVSPropertyOp8
 70
     1
102
RTVSPropertyOp9
 70
     1
102
RTVSPropertyOp10
 70
     1
102
RTVSPropertyOp11
 70
     1
102
RTVSPropertyOp12
 70
     1
102
RTVSPropertyOp13
 70
     1
102
RTVSPropertyOp14
 70
     1
102
RTVSPropertyOp15
 70
     1
102
RTVSPropertyOp16
 70
     1
102
RTVSPropertyOp17
 70
     1
102
RTVSPropertyOp18
 70
     1
102
RTVSPropertyOp19
 70
     1
102
RTVSPropertyOp20
 70
     1
102
RTVSPropertyOp21
 70
     1
102
RTVSPropertyOp22
 70
     1
102
RTVSPropertyOp23
 70
     1
102
RTVSPropertyOp24
 70
     1
102
RTVSPropertyOp25
 70
     1
102
RTVSPropertyOp26
 70
     1
102
RTVSPropertyOp27
 70
     1
102
RTVSPropertyOp28
 70
     1
102
RTVSPropertyOp29
 70
     1
102
RTVSPropertyOp30
 70
     1
102
RTVSPropertyOp31
 70
     1
102
RTVSPropertyOp32
 70
     1
102
RTVSPropertyOp33
 70
     1
102
RTVSPropertyOp34
 70
     1
102
RTVSPropertyOp35
 70
     1
102
RTVSPropertyOp36
 70
     1
102
RTVSPropertyOp37
 70
     1
102
RTVSPropertyOp38
 70
     1
102
RTVSPropertyOp39
 70
     1
102
RTVSPropertyOp40
 70
     1
102
RTVSPropertyOp41
 70
     1
102
RTVSPropertyOp42
 70
     1
102
RTVSPropertyOp43
 70
     1
102
RTVSPropertyOp44
 70
     1
102
RTVSPropertyOp45
 70
     1
102
RTVSPropertyOp46
 70
     1
102
RTVSPropertyOp47
 70
     1
102
RTVSPropertyOp48
 70
     1
102
RTVSPropertyOp49
 70
     1
102
RTVSPropertyOp50
 70
     1
102
RTVSPropertyOp51
 70
     0
102
RTVSPropertyOp52
 70
     0
102
RTVSPropertyOp53
 70
     1
102
RTVSPropertyOp54
 70
     1
102
RTVSPropertyOp55
 70
     1
102
RTVSPropertyOp56
 70
     1
102
RTVSPropertyOp57
 70
     1
102
RTVSPropertyOp58
 70
     1
102
RTVSPropertyOp59
 70
     1
102
RTVSPropertyOp60
 70
     1
102
RTVSPropertyOp61
 70
     1
102
RTVSPropertyOp62
 70
     1
  0
XRECORD
  5
646F
102
{ACAD_REACTORS
330
646E
102
}
330
646E
100
AcDbXrecord
280
     1
102
RTVSPost2010Prop28
280
     0
102
RTVSPost2010PropOp28
 70
     1
102
RTVSPost2010Prop29
280
     1
102
RTVSPost2010PropOp29
 70
     1
102
RTVSPost2010Prop30
280
     1
102
RTVSPost2010PropOp30
 70
     1
102
RTVSPost2010Prop31
280
     0
102
RTVSPost2010PropOp31
 70
     1
102
RTVSPost2010Prop32
280
     0
102
RTVSPost2010PropOp32
 70
     1
102
RTVSPost2010Prop33
280
     0
102
RTVSPost2010PropOp33
 70
     1
102
RTVSPost2010Prop34
280
     0
102
RTVSPost2010PropOp34
 70
     1
102
RTVSPost2010Prop35
280
     0
102
RTVSPost2010PropOp35
 70
     1
102
RTVSPost2010Prop36
280
     0
102
RTVSPost2010PropOp36
 70
     1
102
RTVSPost2010Prop37
 90
       50
102
RTVSPost2010PropOp37
 70
     1
102
RTVSPost2010Prop38
140
0.0
102
RTVSPost2010PropOp38
 70
     1
102
RTVSPost2010Prop39
140
1.0
102
RTVSPost2010PropOp39
 70
     1
102
RTVSPost2010Prop40
 90
        0
102
RTVSPost2010PropOp40
 70
     1
102
RTVSPost2010Prop41ColorIndex
 90
       18
102
RTVSPost2010Prop41ColorRGB
 90
        0
102
RTVSPost2010PropOp41
 70
     1
102
RTVSPost2010Prop42
 90
       50
102
RTVSPost2010PropOp42
 70
     1
102
RTVSPost2010Prop43
 90
        3
102
RTVSPost2010PropOp43
 70
     1
102
RTVSPost2010Prop44ColorIndex
 90
        5
102
RTVSPost2010Prop44ColorRGB
 90
      255
102
RTVSPost2010PropOp44
 70
     1
102
RTVSPost2010Prop45
280
     0
102
RTVSPost2010PropOp45
 70
     1
102
RTVSPost2010Prop46
 90
       50
102
RTVSPost2010PropOp46
 70
     1
102
RTVSPost2010Prop47
 90
       50
102
RTVSPost2010PropOp47
 70
     1
102
RTVSPost2010Prop48
 90
       50
102
RTVSPost2010PropOp48
 70
     1
102
RTVSPost2010Prop49
280
     0
102
RTVSPost2010PropOp49
 70
     1
102
RTVSPost2010Prop50
 90
       50
102
RTVSPost2010PropOp50
 70
     1
102
RTVSPost2010Prop51ColorIndex
 90
      256
102
RTVSPost2010Prop51ColorRGB
 90
-16777216
102
RTVSPost2010PropOp51
 70
     0
102
RTVSPost2010Prop52
140
1.0
102
RTVSPost2010PropOp52
 70
     0
102
RTVSPost2010Prop53
 90
        2
102
RTVSPost2010PropOp53
 70
     1
102
RTVSPost2010Prop54
  1
strokes_ogs.tif
102
RTVSPost2010PropOp54
 70
     1
102
RTVSPost2010Prop55
280
     0
102
RTVSPost2010PropOp55
 70
     1
102
RTVSPost2010Prop56
140
1.0
102
RTVSPost2010PropOp56
 70
     1
102
RTVSPost2010Prop57
140
1.0
102
RTVSPost2010PropOp57
 70
     1
102
RTVSPropertyOp0
 70
     1
102
RTVSPropertyOp1
 70
     1
102
RTVSPropertyOp2
 70
     1
102
RTVSPropertyOp3
 70
     1
102
RTVSPropertyOp4
 70
     1
102
RTVSPropertyOp5
 70
     1
102
RTVSPropertyOp6
 70
     1
102
RTVSPropertyOp7
 70
     1
102
RTVSPropertyOp8
 70
     1
102
RTVSPropertyOp9
 70
     1
102
RTVSPropertyOp10
 70
     1
102
RTVSPropertyOp11
 70
     1
102
RTVSPropertyOp12
 70
     1
102
RTVSPropertyOp13
 70
     1
102
RTVSPropertyOp14
 70
     1
102
RTVSPropertyOp15
 70
     1
102
RTVSPropertyOp16
 70
     1
102
RTVSPropertyOp17
 70
     1
102
RTVSPropertyOp18
 70
     1
102
RTVSPropertyOp19
 70
     1
102
RTVSPropertyOp20
 70
     1
102
RTVSPropertyOp21
 70
     1
102
RTVSPropertyOp22
 70
     1
102
RTVSPropertyOp23
 70
     1
102
RTVSPropertyOp24
 70
     1
102
RTVSPropertyOp25
 70
     1
102
RTVSPropertyOp26
 70
     1
102
RTVSPropertyOp27
 70
     1
102
RTVSPropertyOp28
 70
     1
102
RTVSPropertyOp29
 70
     1
102
RTVSPropertyOp30
 70
     1
102
RTVSPropertyOp31
 70
     1
102
RTVSPropertyOp32
 70
     1
102
RTVSPropertyOp33
 70
     1
102
RTVSPropertyOp34
 70
     1
102
RTVSPropertyOp35
 70
     1
102
RTVSPropertyOp36
 70
     1
102
RTVSPropertyOp37
 70
     1
102
RTVSPropertyOp38
 70
     1
102
RTVSPropertyOp39
 70
     1
102
RTVSPropertyOp40
 70
     1
102
RTVSPropertyOp41
 70
     1
102
RTVSPropertyOp42
 70
     1
102
RTVSPropertyOp43
 70
     1
102
RTVSPropertyOp44
 70
     1
102
RTVSPropertyOp45
 70
     1
102
RTVSPropertyOp46
 70
     1
102
RTVSPropertyOp47
 70
     1
102
RTVSPropertyOp48
 70
     1
102
RTVSPropertyOp49
 70
     1
102
RTVSPropertyOp50
 70
     1
102
RTVSPropertyOp51
 70
     0
102
RTVSPropertyOp52
 70
     0
102
RTVSPropertyOp53
 70
     1
102
RTVSPropertyOp54
 70
     1
102
RTVSPropertyOp55
 70
     1
102
RTVSPropertyOp56
 70
     1
102
RTVSPropertyOp57
 70
     1
102
RTVSPropertyOp58
 70
     1
102
RTVSPropertyOp59
 70
     1
102
RTVSPropertyOp60
 70
     1
102
RTVSPropertyOp61
 70
     1
102
RTVSPropertyOp62
 70
     1
  0
XRECORD
  5
6469
102
{ACAD_REACTORS
330
6468
102
}
330
6468
100
AcDbXrecord
280
     1
102
RTVSPost2010Prop28
280
     0
102
RTVSPost2010PropOp28
 70
     1
102
RTVSPost2010Prop29
280
     1
102
RTVSPost2010PropOp29
 70
     1
102
RTVSPost2010Prop30
280
     1
102
RTVSPost2010PropOp30
 70
     1
102
RTVSPost2010Prop31
280
     0
102
RTVSPost2010PropOp31
 70
     1
102
RTVSPost2010Prop32
280
     0
102
RTVSPost2010PropOp32
 70
     1
102
RTVSPost2010Prop33
280
     0
102
RTVSPost2010PropOp33
 70
     1
102
RTVSPost2010Prop34
280
     0
102
RTVSPost2010PropOp34
 70
     1
102
RTVSPost2010Prop35
280
     0
102
RTVSPost2010PropOp35
 70
     1
102
RTVSPost2010Prop36
280
     0
102
RTVSPost2010PropOp36
 70
     1
102
RTVSPost2010Prop37
 90
       50
102
RTVSPost2010PropOp37
 70
     1
102
RTVSPost2010Prop38
140
0.0
102
RTVSPost2010PropOp38
 70
     1
102
RTVSPost2010Prop39
140
1.0
102
RTVSPost2010PropOp39
 70
     1
102
RTVSPost2010Prop40
 90
        0
102
RTVSPost2010PropOp40
 70
     1
102
RTVSPost2010Prop41ColorIndex
 90
       18
102
RTVSPost2010Prop41ColorRGB
 90
        0
102
RTVSPost2010PropOp41
 70
     1
102
RTVSPost2010Prop42
 90
       50
102
RTVSPost2010PropOp42
 70
     1
102
RTVSPost2010Prop43
 90
        3
102
RTVSPost2010PropOp43
 70
     1
102
RTVSPost2010Prop44ColorIndex
 90
        5
102
RTVSPost2010Prop44ColorRGB
 90
      255
102
RTVSPost2010PropOp44
 70
     1
102
RTVSPost2010Prop45
280
     0
102
RTVSPost2010PropOp45
 70
     1
102
RTVSPost2010Prop46
 90
       50
102
RTVSPost2010PropOp46
 70
     1
102
RTVSPost2010Prop47
 90
       50
102
RTVSPost2010PropOp47
 70
     1
102
RTVSPost2010Prop48
 90
       50
102
RTVSPost2010PropOp48
 70
     1
102
RTVSPost2010Prop49
280
     0
102
RTVSPost2010PropOp49
 70
     1
102
RTVSPost2010Prop50
 90
       50
102
RTVSPost2010PropOp50
 70
     1
102
RTVSPost2010Prop51ColorIndex
 90
      256
102
RTVSPost2010Prop51ColorRGB
 90
-16777216
102
RTVSPost2010PropOp51
 70
     0
102
RTVSPost2010Prop52
140
1.0
102
RTVSPost2010PropOp52
 70
     0
102
RTVSPost2010Prop53
 90
        2
102
RTVSPost2010PropOp53
 70
     1
102
RTVSPost2010Prop54
  1
strokes_ogs.tif
102
RTVSPost2010PropOp54
 70
     1
102
RTVSPost2010Prop55
280
     0
102
RTVSPost2010PropOp55
 70
     1
102
RTVSPost2010Prop56
140
1.0
102
RTVSPost2010PropOp56
 70
     1
102
RTVSPost2010Prop57
140
1.0
102
RTVSPost2010PropOp57
 70
     1
102
RTVSPropertyOp0
 70
     1
102
RTVSPropertyOp1
 70
     1
102
RTVSPropertyOp2
 70
     1
102
RTVSPropertyOp3
 70
     1
102
RTVSPropertyOp4
 70
     1
102
RTVSPropertyOp5
 70
     1
102
RTVSPropertyOp6
 70
     1
102
RTVSPropertyOp7
 70
     1
102
RTVSPropertyOp8
 70
     1
102
RTVSPropertyOp9
 70
     1
102
RTVSPropertyOp10
 70
     1
102
RTVSPropertyOp11
 70
     1
102
RTVSPropertyOp12
 70
     1
102
RTVSPropertyOp13
 70
     1
102
RTVSPropertyOp14
 70
     1
102
RTVSPropertyOp15
 70
     1
102
RTVSPropertyOp16
 70
     1
102
RTVSPropertyOp17
 70
     1
102
RTVSPropertyOp18
 70
     1
102
RTVSPropertyOp19
 70
     1
102
RTVSPropertyOp20
 70
     1
102
RTVSPropertyOp21
 70
     1
102
RTVSPropertyOp22
 70
     1
102
RTVSPropertyOp23
 70
     1
102
RTVSPropertyOp24
 70
     1
102
RTVSPropertyOp25
 70
     1
102
RTVSPropertyOp26
 70
     1
102
RTVSPropertyOp27
 70
     1
102
RTVSPropertyOp28
 70
     1
102
RTVSPropertyOp29
 70
     1
102
RTVSPropertyOp30
 70
     1
102
RTVSPropertyOp31
 70
     1
102
RTVSPropertyOp32
 70
     1
102
RTVSPropertyOp33
 70
     1
102
RTVSPropertyOp34
 70
     1
102
RTVSPropertyOp35
 70
     1
102
RTVSPropertyOp36
 70
     1
102
RTVSPropertyOp37
 70
     1
102
RTVSPropertyOp38
 70
     1
102
RTVSPropertyOp39
 70
     1
102
RTVSPropertyOp40
 70
     1
102
RTVSPropertyOp41
 70
     1
102
RTVSPropertyOp42
 70
     1
102
RTVSPropertyOp43
 70
     1
102
RTVSPropertyOp44
 70
     1
102
RTVSPropertyOp45
 70
     1
102
RTVSPropertyOp46
 70
     1
102
RTVSPropertyOp47
 70
     1
102
RTVSPropertyOp48
 70
     1
102
RTVSPropertyOp49
 70
     1
102
RTVSPropertyOp50
 70
     1
102
RTVSPropertyOp51
 70
     0
102
RTVSPropertyOp52
 70
     0
102
RTVSPropertyOp53
 70
     1
102
RTVSPropertyOp54
 70
     1
102
RTVSPropertyOp55
 70
     1
102
RTVSPropertyOp56
 70
     1
102
RTVSPropertyOp57
 70
     1
102
RTVSPropertyOp58
 70
     1
102
RTVSPropertyOp59
 70
     1
102
RTVSPropertyOp60
 70
     1
102
RTVSPropertyOp61
 70
     1
102
RTVSPropertyOp62
 70
     1
  0
XRECORD
  5
646B
102
{ACAD_REACTORS
330
646A
102
}
330
646A
100
AcDbXrecord
280
     1
102
RTVSPost2010Prop28
280
     0
102
RTVSPost2010PropOp28
 70
     1
102
RTVSPost2010Prop29
280
     1
102
RTVSPost2010PropOp29
 70
     1
102
RTVSPost2010Prop30
280
     1
102
RTVSPost2010PropOp30
 70
     1
102
RTVSPost2010Prop31
280
     0
102
RTVSPost2010PropOp31
 70
     1
102
RTVSPost2010Prop32
280
     0
102
RTVSPost2010PropOp32
 70
     1
102
RTVSPost2010Prop33
280
     0
102
RTVSPost2010PropOp33
 70
     1
102
RTVSPost2010Prop34
280
     0
102
RTVSPost2010PropOp34
 70
     1
102
RTVSPost2010Prop35
280
     0
102
RTVSPost2010PropOp35
 70
     1
102
RTVSPost2010Prop36
280
     0
102
RTVSPost2010PropOp36
 70
     1
102
RTVSPost2010Prop37
 90
       50
102
RTVSPost2010PropOp37
 70
     1
102
RTVSPost2010Prop38
140
0.0
102
RTVSPost2010PropOp38
 70
     1
102
RTVSPost2010Prop39
140
1.0
102
RTVSPost2010PropOp39
 70
     1
102
RTVSPost2010Prop40
 90
        0
102
RTVSPost2010PropOp40
 70
     1
102
RTVSPost2010Prop41ColorIndex
 90
       18
102
RTVSPost2010Prop41ColorRGB
 90
        0
102
RTVSPost2010PropOp41
 70
     1
102
RTVSPost2010Prop42
 90
       50
102
RTVSPost2010PropOp42
 70
     1
102
RTVSPost2010Prop43
 90
        3
102
RTVSPost2010PropOp43
 70
     1
102
RTVSPost2010Prop44ColorIndex
 90
        5
102
RTVSPost2010Prop44ColorRGB
 90
      255
102
RTVSPost2010PropOp44
 70
     1
102
RTVSPost2010Prop45
280
     0
102
RTVSPost2010PropOp45
 70
     1
102
RTVSPost2010Prop46
 90
       50
102
RTVSPost2010PropOp46
 70
     1
102
RTVSPost2010Prop47
 90
       50
102
RTVSPost2010PropOp47
 70
     1
102
RTVSPost2010Prop48
 90
       50
102
RTVSPost2010PropOp48
 70
     1
102
RTVSPost2010Prop49
280
     0
102
RTVSPost2010PropOp49
 70
     1
102
RTVSPost2010Prop50
 90
       50
102
RTVSPost2010PropOp50
 70
     1
102
RTVSPost2010Prop51ColorIndex
 90
      256
102
RTVSPost2010Prop51ColorRGB
 90
-16777216
102
RTVSPost2010PropOp51
 70
     0
102
RTVSPost2010Prop52
140
1.0
102
RTVSPost2010PropOp52
 70
     0
102
RTVSPost2010Prop53
 90
        2
102
RTVSPost2010PropOp53
 70
     1
102
RTVSPost2010Prop54
  1
strokes_ogs.tif
102
RTVSPost2010PropOp54
 70
     1
102
RTVSPost2010Prop55
280
     0
102
RTVSPost2010PropOp55
 70
     1
102
RTVSPost2010Prop56
140
1.0
102
RTVSPost2010PropOp56
 70
     1
102
RTVSPost2010Prop57
140
1.0
102
RTVSPost2010PropOp57
 70
     1
102
RTVSPropertyOp0
 70
     1
102
RTVSPropertyOp1
 70
     1
102
RTVSPropertyOp2
 70
     1
102
RTVSPropertyOp3
 70
     1
102
RTVSPropertyOp4
 70
     1
102
RTVSPropertyOp5
 70
     1
102
RTVSPropertyOp6
 70
     1
102
RTVSPropertyOp7
 70
     1
102
RTVSPropertyOp8
 70
     1
102
RTVSPropertyOp9
 70
     1
102
RTVSPropertyOp10
 70
     1
102
RTVSPropertyOp11
 70
     1
102
RTVSPropertyOp12
 70
     1
102
RTVSPropertyOp13
 70
     1
102
RTVSPropertyOp14
 70
     1
102
RTVSPropertyOp15
 70
     1
102
RTVSPropertyOp16
 70
     1
102
RTVSPropertyOp17
 70
     1
102
RTVSPropertyOp18
 70
     1
102
RTVSPropertyOp19
 70
     1
102
RTVSPropertyOp20
 70
     1
102
RTVSPropertyOp21
 70
     1
102
RTVSPropertyOp22
 70
     1
102
RTVSPropertyOp23
 70
     1
102
RTVSPropertyOp24
 70
     1
102
RTVSPropertyOp25
 70
     1
102
RTVSPropertyOp26
 70
     1
102
RTVSPropertyOp27
 70
     1
102
RTVSPropertyOp28
 70
     1
102
RTVSPropertyOp29
 70
     1
102
RTVSPropertyOp30
 70
     1
102
RTVSPropertyOp31
 70
     1
102
RTVSPropertyOp32
 70
     1
102
RTVSPropertyOp33
 70
     1
102
RTVSPropertyOp34
 70
     1
102
RTVSPropertyOp35
 70
     1
102
RTVSPropertyOp36
 70
     1
102
RTVSPropertyOp37
 70
     1
102
RTVSPropertyOp38
 70
     1
102
RTVSPropertyOp39
 70
     1
102
RTVSPropertyOp40
 70
     1
102
RTVSPropertyOp41
 70
     1
102
RTVSPropertyOp42
 70
     1
102
RTVSPropertyOp43
 70
     1
102
RTVSPropertyOp44
 70
     1
102
RTVSPropertyOp45
 70
     1
102
RTVSPropertyOp46
 70
     1
102
RTVSPropertyOp47
 70
     1
102
RTVSPropertyOp48
 70
     1
102
RTVSPropertyOp49
 70
     1
102
RTVSPropertyOp50
 70
     1
102
RTVSPropertyOp51
 70
     0
102
RTVSPropertyOp52
 70
     0
102
RTVSPropertyOp53
 70
     1
102
RTVSPropertyOp54
 70
     1
102
RTVSPropertyOp55
 70
     1
102
RTVSPropertyOp56
 70
     1
102
RTVSPropertyOp57
 70
     1
102
RTVSPropertyOp58
 70
     1
102
RTVSPropertyOp59
 70
     1
102
RTVSPropertyOp60
 70
     1
102
RTVSPropertyOp61
 70
     1
102
RTVSPropertyOp62
 70
     1
  0
XRECORD
  5
6461
102
{ACAD_REACTORS
330
6460
102
}
330
6460
100
AcDbXrecord
280
     1
102
RTVSPost2010Prop28
280
     0
102
RTVSPost2010PropOp28
 70
     1
102
RTVSPost2010Prop29
280
     1
102
RTVSPost2010PropOp29
 70
     1
102
RTVSPost2010Prop30
280
     1
102
RTVSPost2010PropOp30
 70
     1
102
RTVSPost2010Prop31
280
     0
102
RTVSPost2010PropOp31
 70
     1
102
RTVSPost2010Prop32
280
     0
102
RTVSPost2010PropOp32
 70
     1
102
RTVSPost2010Prop33
280
     0
102
RTVSPost2010PropOp33
 70
     1
102
RTVSPost2010Prop34
280
     0
102
RTVSPost2010PropOp34
 70
     1
102
RTVSPost2010Prop35
280
     0
102
RTVSPost2010PropOp35
 70
     1
102
RTVSPost2010Prop36
280
     0
102
RTVSPost2010PropOp36
 70
     1
102
RTVSPost2010Prop37
 90
       50
102
RTVSPost2010PropOp37
 70
     1
102
RTVSPost2010Prop38
140
0.0
102
RTVSPost2010PropOp38
 70
     1
102
RTVSPost2010Prop39
140
1.0
102
RTVSPost2010PropOp39
 70
     1
102
RTVSPost2010Prop40
 90
        0
102
RTVSPost2010PropOp40
 70
     1
102
RTVSPost2010Prop41ColorIndex
 90
       18
102
RTVSPost2010Prop41ColorRGB
 90
        0
102
RTVSPost2010PropOp41
 70
     1
102
RTVSPost2010Prop42
 90
       50
102
RTVSPost2010PropOp42
 70
     1
102
RTVSPost2010Prop43
 90
        3
102
RTVSPost2010PropOp43
 70
     1
102
RTVSPost2010Prop44ColorIndex
 90
        5
102
RTVSPost2010Prop44ColorRGB
 90
      255
102
RTVSPost2010PropOp44
 70
     1
102
RTVSPost2010Prop45
280
     0
102
RTVSPost2010PropOp45
 70
     1
102
RTVSPost2010Prop46
 90
       50
102
RTVSPost2010PropOp46
 70
     1
102
RTVSPost2010Prop47
 90
       50
102
RTVSPost2010PropOp47
 70
     1
102
RTVSPost2010Prop48
 90
       50
102
RTVSPost2010PropOp48
 70
     1
102
RTVSPost2010Prop49
280
     0
102
RTVSPost2010PropOp49
 70
     1
102
RTVSPost2010Prop50
 90
       50
102
RTVSPost2010PropOp50
 70
     1
102
RTVSPost2010Prop51ColorIndex
 90
      256
102
RTVSPost2010Prop51ColorRGB
 90
-16777216
102
RTVSPost2010PropOp51
 70
     0
102
RTVSPost2010Prop52
140
1.0
102
RTVSPost2010PropOp52
 70
     0
102
RTVSPost2010Prop53
 90
        2
102
RTVSPost2010PropOp53
 70
     1
102
RTVSPost2010Prop54
  1
strokes_ogs.tif
102
RTVSPost2010PropOp54
 70
     1
102
RTVSPost2010Prop55
280
     0
102
RTVSPost2010PropOp55
 70
     1
102
RTVSPost2010Prop56
140
1.0
102
RTVSPost2010PropOp56
 70
     1
102
RTVSPost2010Prop57
140
1.0
102
RTVSPost2010PropOp57
 70
     1
102
RTVSPropertyOp0
 70
     1
102
RTVSPropertyOp1
 70
     1
102
RTVSPropertyOp2
 70
     1
102
RTVSPropertyOp3
 70
     1
102
RTVSPropertyOp4
 70
     1
102
RTVSPropertyOp5
 70
     1
102
RTVSPropertyOp6
 70
     1
102
RTVSPropertyOp7
 70
     1
102
RTVSPropertyOp8
 70
     1
102
RTVSPropertyOp9
 70
     1
102
RTVSPropertyOp10
 70
     1
102
RTVSPropertyOp11
 70
     1
102
RTVSPropertyOp12
 70
     1
102
RTVSPropertyOp13
 70
     1
102
RTVSPropertyOp14
 70
     1
102
RTVSPropertyOp15
 70
     1
102
RTVSPropertyOp16
 70
     1
102
RTVSPropertyOp17
 70
     1
102
RTVSPropertyOp18
 70
     1
102
RTVSPropertyOp19
 70
     1
102
RTVSPropertyOp20
 70
     1
102
RTVSPropertyOp21
 70
     1
102
RTVSPropertyOp22
 70
     1
102
RTVSPropertyOp23
 70
     1
102
RTVSPropertyOp24
 70
     1
102
RTVSPropertyOp25
 70
     1
102
RTVSPropertyOp26
 70
     1
102
RTVSPropertyOp27
 70
     1
102
RTVSPropertyOp28
 70
     1
102
RTVSPropertyOp29
 70
     1
102
RTVSPropertyOp30
 70
     1
102
RTVSPropertyOp31
 70
     1
102
RTVSPropertyOp32
 70
     1
102
RTVSPropertyOp33
 70
     1
102
RTVSPropertyOp34
 70
     1
102
RTVSPropertyOp35
 70
     1
102
RTVSPropertyOp36
 70
     1
102
RTVSPropertyOp37
 70
     1
102
RTVSPropertyOp38
 70
     1
102
RTVSPropertyOp39
 70
     1
102
RTVSPropertyOp40
 70
     1
102
RTVSPropertyOp41
 70
     1
102
RTVSPropertyOp42
 70
     1
102
RTVSPropertyOp43
 70
     1
102
RTVSPropertyOp44
 70
     1
102
RTVSPropertyOp45
 70
     1
102
RTVSPropertyOp46
 70
     1
102
RTVSPropertyOp47
 70
     1
102
RTVSPropertyOp48
 70
     1
102
RTVSPropertyOp49
 70
     1
102
RTVSPropertyOp50
 70
     1
102
RTVSPropertyOp51
 70
     0
102
RTVSPropertyOp52
 70
     0
102
RTVSPropertyOp53
 70
     1
102
RTVSPropertyOp54
 70
     1
102
RTVSPropertyOp55
 70
     1
102
RTVSPropertyOp56
 70
     1
102
RTVSPropertyOp57
 70
     1
102
RTVSPropertyOp58
 70
     1
102
RTVSPropertyOp59
 70
     1
102
RTVSPropertyOp60
 70
     1
102
RTVSPropertyOp61
 70
     1
102
RTVSPropertyOp62
 70
     1
  0
XRECORD
  5
6455
102
{ACAD_REACTORS
330
6454
102
}
330
6454
100
AcDbXrecord
280
     1
102
RTVSPost2010Prop28
280
     0
102
RTVSPost2010PropOp28
 70
     1
102
RTVSPost2010Prop29
280
     1
102
RTVSPost2010PropOp29
 70
     1
102
RTVSPost2010Prop30
280
     1
102
RTVSPost2010PropOp30
 70
     1
102
RTVSPost2010Prop31
280
     0
102
RTVSPost2010PropOp31
 70
     1
102
RTVSPost2010Prop32
280
     0
102
RTVSPost2010PropOp32
 70
     1
102
RTVSPost2010Prop33
280
     0
102
RTVSPost2010PropOp33
 70
     1
102
RTVSPost2010Prop34
280
     0
102
RTVSPost2010PropOp34
 70
     1
102
RTVSPost2010Prop35
280
     0
102
RTVSPost2010PropOp35
 70
     1
102
RTVSPost2010Prop36
280
     0
102
RTVSPost2010PropOp36
 70
     1
102
RTVSPost2010Prop37
 90
       50
102
RTVSPost2010PropOp37
 70
     1
102
RTVSPost2010Prop38
140
0.0
102
RTVSPost2010PropOp38
 70
     1
102
RTVSPost2010Prop39
140
1.0
102
RTVSPost2010PropOp39
 70
     1
102
RTVSPost2010Prop40
 90
        0
102
RTVSPost2010PropOp40
 70
     1
102
RTVSPost2010Prop41ColorIndex
 90
       18
102
RTVSPost2010Prop41ColorRGB
 90
        0
102
RTVSPost2010PropOp41
 70
     1
102
RTVSPost2010Prop42
 90
       50
102
RTVSPost2010PropOp42
 70
     1
102
RTVSPost2010Prop43
 90
        3
102
RTVSPost2010PropOp43
 70
     1
102
RTVSPost2010Prop44ColorIndex
 90
        5
102
RTVSPost2010Prop44ColorRGB
 90
      255
102
RTVSPost2010PropOp44
 70
     1
102
RTVSPost2010Prop45
280
     0
102
RTVSPost2010PropOp45
 70
     1
102
RTVSPost2010Prop46
 90
       50
102
RTVSPost2010PropOp46
 70
     1
102
RTVSPost2010Prop47
 90
       50
102
RTVSPost2010PropOp47
 70
     1
102
RTVSPost2010Prop48
 90
       50
102
RTVSPost2010PropOp48
 70
     1
102
RTVSPost2010Prop49
280
     0
102
RTVSPost2010PropOp49
 70
     1
102
RTVSPost2010Prop50
 90
       50
102
RTVSPost2010PropOp50
 70
     1
102
RTVSPost2010Prop51ColorIndex
 90
      256
102
RTVSPost2010Prop51ColorRGB
 90
-16777216
102
RTVSPost2010PropOp51
 70
     0
102
RTVSPost2010Prop52
140
1.0
102
RTVSPost2010PropOp52
 70
     0
102
RTVSPost2010Prop53
 90
        2
102
RTVSPost2010PropOp53
 70
     1
102
RTVSPost2010Prop54
  1
strokes_ogs.tif
102
RTVSPost2010PropOp54
 70
     1
102
RTVSPost2010Prop55
280
     0
102
RTVSPost2010PropOp55
 70
     1
102
RTVSPost2010Prop56
140
1.0
102
RTVSPost2010PropOp56
 70
     1
102
RTVSPost2010Prop57
140
1.0
102
RTVSPost2010PropOp57
 70
     1
102
RTVSPropertyOp0
 70
     1
102
RTVSPropertyOp1
 70
     1
102
RTVSPropertyOp2
 70
     1
102
RTVSPropertyOp3
 70
     1
102
RTVSPropertyOp4
 70
     1
102
RTVSPropertyOp5
 70
     1
102
RTVSPropertyOp6
 70
     1
102
RTVSPropertyOp7
 70
     1
102
RTVSPropertyOp8
 70
     1
102
RTVSPropertyOp9
 70
     1
102
RTVSPropertyOp10
 70
     1
102
RTVSPropertyOp11
 70
     1
102
RTVSPropertyOp12
 70
     1
102
RTVSPropertyOp13
 70
     1
102
RTVSPropertyOp14
 70
     1
102
RTVSPropertyOp15
 70
     1
102
RTVSPropertyOp16
 70
     1
102
RTVSPropertyOp17
 70
     1
102
RTVSPropertyOp18
 70
     1
102
RTVSPropertyOp19
 70
     1
102
RTVSPropertyOp20
 70
     1
102
RTVSPropertyOp21
 70
     1
102
RTVSPropertyOp22
 70
     1
102
RTVSPropertyOp23
 70
     1
102
RTVSPropertyOp24
 70
     1
102
RTVSPropertyOp25
 70
     1
102
RTVSPropertyOp26
 70
     1
102
RTVSPropertyOp27
 70
     1
102
RTVSPropertyOp28
 70
     1
102
RTVSPropertyOp29
 70
     1
102
RTVSPropertyOp30
 70
     1
102
RTVSPropertyOp31
 70
     1
102
RTVSPropertyOp32
 70
     1
102
RTVSPropertyOp33
 70
     1
102
RTVSPropertyOp34
 70
     1
102
RTVSPropertyOp35
 70
     1
102
RTVSPropertyOp36
 70
     1
102
RTVSPropertyOp37
 70
     1
102
RTVSPropertyOp38
 70
     1
102
RTVSPropertyOp39
 70
     1
102
RTVSPropertyOp40
 70
     1
102
RTVSPropertyOp41
 70
     1
102
RTVSPropertyOp42
 70
     1
102
RTVSPropertyOp43
 70
     1
102
RTVSPropertyOp44
 70
     1
102
RTVSPropertyOp45
 70
     1
102
RTVSPropertyOp46
 70
     1
102
RTVSPropertyOp47
 70
     1
102
RTVSPropertyOp48
 70
     1
102
RTVSPropertyOp49
 70
     1
102
RTVSPropertyOp50
 70
     1
102
RTVSPropertyOp51
 70
     0
102
RTVSPropertyOp52
 70
     0
102
RTVSPropertyOp53
 70
     1
102
RTVSPropertyOp54
 70
     1
102
RTVSPropertyOp55
 70
     1
102
RTVSPropertyOp56
 70
     1
102
RTVSPropertyOp57
 70
     1
102
RTVSPropertyOp58
 70
     1
102
RTVSPropertyOp59
 70
     1
102
RTVSPropertyOp60
 70
     1
102
RTVSPropertyOp61
 70
     1
102
RTVSPropertyOp62
 70
     1
  0
XRECORD
  5
646D
102
{ACAD_REACTORS
330
646C
102
}
330
646C
100
AcDbXrecord
280
     1
102
RTVSPost2010Prop28
280
     0
102
RTVSPost2010PropOp28
 70
     1
102
RTVSPost2010Prop29
280
     1
102
RTVSPost2010PropOp29
 70
     1
102
RTVSPost2010Prop30
280
     1
102
RTVSPost2010PropOp30
 70
     1
102
RTVSPost2010Prop31
280
     0
102
RTVSPost2010PropOp31
 70
     1
102
RTVSPost2010Prop32
280
     0
102
RTVSPost2010PropOp32
 70
     1
102
RTVSPost2010Prop33
280
     0
102
RTVSPost2010PropOp33
 70
     1
102
RTVSPost2010Prop34
280
     0
102
RTVSPost2010PropOp34
 70
     1
102
RTVSPost2010Prop35
280
     0
102
RTVSPost2010PropOp35
 70
     1
102
RTVSPost2010Prop36
280
     0
102
RTVSPost2010PropOp36
 70
     1
102
RTVSPost2010Prop37
 90
       50
102
RTVSPost2010PropOp37
 70
     1
102
RTVSPost2010Prop38
140
0.0
102
RTVSPost2010PropOp38
 70
     1
102
RTVSPost2010Prop39
140
1.0
102
RTVSPost2010PropOp39
 70
     1
102
RTVSPost2010Prop40
 90
        0
102
RTVSPost2010PropOp40
 70
     1
102
RTVSPost2010Prop41ColorIndex
 90
       18
102
RTVSPost2010Prop41ColorRGB
 90
        0
102
RTVSPost2010PropOp41
 70
     1
102
RTVSPost2010Prop42
 90
       50
102
RTVSPost2010PropOp42
 70
     1
102
RTVSPost2010Prop43
 90
        3
102
RTVSPost2010PropOp43
 70
     1
102
RTVSPost2010Prop44ColorIndex
 90
        5
102
RTVSPost2010Prop44ColorRGB
 90
      255
102
RTVSPost2010PropOp44
 70
     1
102
RTVSPost2010Prop45
280
     0
102
RTVSPost2010PropOp45
 70
     1
102
RTVSPost2010Prop46
 90
       50
102
RTVSPost2010PropOp46
 70
     1
102
RTVSPost2010Prop47
 90
       50
102
RTVSPost2010PropOp47
 70
     1
102
RTVSPost2010Prop48
 90
       50
102
RTVSPost2010PropOp48
 70
     1
102
RTVSPost2010Prop49
280
     0
102
RTVSPost2010PropOp49
 70
     1
102
RTVSPost2010Prop50
 90
       50
102
RTVSPost2010PropOp50
 70
     1
102
RTVSPost2010Prop51ColorIndex
 90
      256
102
RTVSPost2010Prop51ColorRGB
 90
-16777216
102
RTVSPost2010PropOp51
 70
     0
102
RTVSPost2010Prop52
140
1.0
102
RTVSPost2010PropOp52
 70
     0
102
RTVSPost2010Prop53
 90
        2
102
RTVSPost2010PropOp53
 70
     1
102
RTVSPost2010Prop54
  1
strokes_ogs.tif
102
RTVSPost2010PropOp54
 70
     1
102
RTVSPost2010Prop55
280
     0
102
RTVSPost2010PropOp55
 70
     1
102
RTVSPost2010Prop56
140
1.0
102
RTVSPost2010PropOp56
 70
     1
102
RTVSPost2010Prop57
140
1.0
102
RTVSPost2010PropOp57
 70
     1
102
RTVSPropertyOp0
 70
     1
102
RTVSPropertyOp1
 70
     1
102
RTVSPropertyOp2
 70
     1
102
RTVSPropertyOp3
 70
     1
102
RTVSPropertyOp4
 70
     1
102
RTVSPropertyOp5
 70
     1
102
RTVSPropertyOp6
 70
     1
102
RTVSPropertyOp7
 70
     1
102
RTVSPropertyOp8
 70
     1
102
RTVSPropertyOp9
 70
     1
102
RTVSPropertyOp10
 70
     1
102
RTVSPropertyOp11
 70
     1
102
RTVSPropertyOp12
 70
     1
102
RTVSPropertyOp13
 70
     1
102
RTVSPropertyOp14
 70
     1
102
RTVSPropertyOp15
 70
     1
102
RTVSPropertyOp16
 70
     1
102
RTVSPropertyOp17
 70
     1
102
RTVSPropertyOp18
 70
     1
102
RTVSPropertyOp19
 70
     1
102
RTVSPropertyOp20
 70
     1
102
RTVSPropertyOp21
 70
     1
102
RTVSPropertyOp22
 70
     1
102
RTVSPropertyOp23
 70
     1
102
RTVSPropertyOp24
 70
     1
102
RTVSPropertyOp25
 70
     1
102
RTVSPropertyOp26
 70
     1
102
RTVSPropertyOp27
 70
     1
102
RTVSPropertyOp28
 70
     1
102
RTVSPropertyOp29
 70
     1
102
RTVSPropertyOp30
 70
     1
102
RTVSPropertyOp31
 70
     1
102
RTVSPropertyOp32
 70
     1
102
RTVSPropertyOp33
 70
     1
102
RTVSPropertyOp34
 70
     1
102
RTVSPropertyOp35
 70
     1
102
RTVSPropertyOp36
 70
     1
102
RTVSPropertyOp37
 70
     1
102
RTVSPropertyOp38
 70
     1
102
RTVSPropertyOp39
 70
     1
102
RTVSPropertyOp40
 70
     1
102
RTVSPropertyOp41
 70
     1
102
RTVSPropertyOp42
 70
     1
102
RTVSPropertyOp43
 70
     1
102
RTVSPropertyOp44
 70
     1
102
RTVSPropertyOp45
 70
     1
102
RTVSPropertyOp46
 70
     1
102
RTVSPropertyOp47
 70
     1
102
RTVSPropertyOp48
 70
     1
102
RTVSPropertyOp49
 70
     1
102
RTVSPropertyOp50
 70
     1
102
RTVSPropertyOp51
 70
     0
102
RTVSPropertyOp52
 70
     0
102
RTVSPropertyOp53
 70
     1
102
RTVSPropertyOp54
 70
     1
102
RTVSPropertyOp55
 70
     1
102
RTVSPropertyOp56
 70
     1
102
RTVSPropertyOp57
 70
     1
102
RTVSPropertyOp58
 70
     1
102
RTVSPropertyOp59
 70
     1
102
RTVSPropertyOp60
 70
     1
102
RTVSPropertyOp61
 70
     1
102
RTVSPropertyOp62
 70
     1
  0
ACDBASSOCARRAYACTIONBODY
  5
6427
330
6426
100
AcDbAssocActionBody
 90
        1
100
AcDbAssocParamBasedActionBody
 90
        0
 90
        0
 90
        3
360
6428
360
6429
360
642D
 90
        0
 90
        9
 90
        0
  1
AlignItems
 90
        0
 90
        1
 90
        0
330
0
330
0
 90
        0
  1
AxesAngle
 90
        2
 90
        1
 40
1.570796326794896
330
0
330
0
 90
        0
  1
ItemSpacing
 90
        1
 90
        1
 40
30.0
330
0
330
0
 90
        0
  1
Items
 90
        0
 90
        1
 90
       15
330
0
330
0
 90
        0
  1
LevelSpacing
 90
        1
 90
        1
 40
1.0
330
0
330
0
 90
        0
  1
Levels
 90
        0
 90
        1
 90
        1
330
0
330
0
 90
        0
  1
RowElevation
 90
        1
 90
        1
 40
0.0
330
0
330
0
 90
        0
  1
RowSpacing
 90
        1
 90
        1
 40
526.5000000000003
330
0
330
0
 90
        0
  1
Rows
 90
        0
 90
        1
 90
        1
330
0
330
0
100
AcDbAssocArrayActionBody
 90
        1
  1
AcDbAssocArrayRectangularParameters
 90
        0
 90
       15
  1
AcDbAssocArrayItem
100
AcDbAssocArrayItem
 90
        0
 90
        0
 90
        0
 90
        0
 90
        8
 11
0.0
 21
0.0
 31
0.0
330
642F
100
AcDbAssocArrayItem
 90
        0
 90
        1
 90
        0
 90
        0
 90
        8
 11
30.0
 21
0.0
 31
0.0
330
6430
100
AcDbAssocArrayItem
 90
        0
 90
        2
 90
        0
 90
        0
 90
        8
 11
60.0
 21
0.0
 31
0.0
330
6431
100
AcDbAssocArrayItem
 90
        0
 90
        3
 90
        0
 90
        0
 90
        8
 11
90.0
 21
0.0
 31
0.0
330
6432
100
AcDbAssocArrayItem
 90
        0
 90
        4
 90
        0
 90
        0
 90
        8
 11
120.0
 21
0.0
 31
0.0
330
6433
100
AcDbAssocArrayItem
 90
        0
 90
        5
 90
        0
 90
        0
 90
        8
 11
150.0
 21
0.0
 31
0.0
330
6434
100
AcDbAssocArrayItem
 90
        0
 90
        6
 90
        0
 90
        0
 90
        8
 11
180.0
 21
0.0
 31
0.0
330
6435
100
AcDbAssocArrayItem
 90
        0
 90
        7
 90
        0
 90
        0
 90
        8
 11
210.0
 21
0.0
 31
0.0
330
6436
100
AcDbAssocArrayItem
 90
        0
 90
        8
 90
        0
 90
        0
 90
        8
 11
240.0
 21
0.0
 31
0.0
330
6437
100
AcDbAssocArrayItem
 90
        0
 90
        9
 90
        0
 90
        0
 90
        8
 11
270.0
 21
0.0
 31
0.0
330
6438
100
AcDbAssocArrayItem
 90
        0
 90
       10
 90
        0
 90
        0
 90
        8
 11
300.0
 21
0.0
 31
0.0
330
6439
100
AcDbAssocArrayItem
 90
        0
 90
       11
 90
        0
 90
        0
 90
        8
 11
330.0
 21
0.0
 31
0.0
330
643A
100
AcDbAssocArrayItem
 90
        0
 90
       12
 90
        0
 90
        0
 90
        8
 11
360.0
 21
0.0
 31
0.0
330
643B
100
AcDbAssocArrayItem
 90
        0
 90
       13
 90
        0
 90
        0
 90
        8
 11
390.0
 21
0.0
 31
0.0
330
643C
100
AcDbAssocArrayItem
 90
        0
 90
       14
 90
        0
 90
        0
 90
        8
 11
420.0
 21
0.0
 31
0.0
330
643D
 40
1.0
 40
0.0
 40
0.0
 40
3510.128652219982
 40
0.0
 40
1.0
 40
0.0
 40
723.9208662721587
 40
0.0
 40
0.0
 40
1.0
 40
0.0
 40
0.0
 40
0.0
 40
0.0
 40
1.0
  0
ACDBASSOCDEPENDENCY
  5
642A
330
6426
100
AcDbAssocDependency
 90
        2
 90
        1
290
     0
290
     1
290
     1
290
     1
 90
        0
330
63DE
290
     0
330
0
330
0
360
0
 90
        1
  0
ACDBASSOCDEPENDENCY
  5
642B
330
6426
100
AcDbAssocDependency
 90
        2
 90
        1
290
     1
290
     0
290
     1
290
     1
 90
        0
330
63DB
290
     0
330
0
330
0
360
0
 90
        2
  0
ACDBASSOCDEPENDENCY
  5
642C
330
6426
100
AcDbAssocDependency
 90
        2
 90
        0
290
     1
290
     1
290
     1
290
     1
 90
-2147483648
330
63E1
290
     0
330
0
330
0
360
0
 90
        3
  0
ACDBASSOCVERTEXACTIONPARAM
  5
6428
330
6427
100
AcDbAssocActionParam
 90
        0
  1
BaseNormal
100
AcDbAssocSingleDependencyActionParam
 90
        0
330
0
100
AcDbAssocVertexActionParam
 90
        0
 10
0.0
 20
0.0
 30
1.0
  0
ACDBASSOCVERTEXACTIONPARAM
  5
6429
330
6427
100
AcDbAssocActionParam
 90
        0
  1
Origin
100
AcDbAssocSingleDependencyActionParam
 90
        0
330
0
100
AcDbAssocVertexActionParam
 90
        0
 10
0.0
 20
0.0
 30
0.0
  0
ACDBASSOCVERTEXACTIONPARAM
  5
642D
330
6427
100
AcDbAssocActionParam
 90
        0
  1
basePoint
100
AcDbAssocSingleDependencyActionParam
 90
        0
330
0
100
AcDbAssocVertexActionParam
 90
        0
 10
0.0
 20
0.0
 30
0.0
  0
ENDSEC
  0
EOF
